<?xml version="1.0" standalone="no"?>
<!DOCTYPE svg PUBLIC "-//W3C//DTD SVG 1.1//EN" "http://www.w3.org/Graphics/SVG/1.1/DTD/svg11.dtd" >
<svg>
<metadata>
Created by FontForge 20090914 at Fri Feb 24 14:10:19 2012
 By root
Copyright 2003, 2009 B. Jackowski and J. M. Nowacki (on behalf of TeX users groups). This work is released under the GUST Font License --  see http://tug.org/fonts/licenses/GUST-FONT-LICENSE.txt for details.
</metadata>
<defs>
<font id="LMMonoCaps10-Regular" horiz-adv-x="525" >
  <font-face 
    font-family="LMMonoCaps10"
    font-weight="400"
    font-variant="small-caps"
    font-stretch="normal"
    units-per-em="1000"
    panose-1="0 0 5 9 0 0 0 0 0 0"
    ascent="778"
    descent="-222"
    x-height="472"
    cap-height="611"
    bbox="-451 -316 973 985"
    underline-thickness="69"
    underline-position="-99"
    stemh="61"
    stemv="69"
    unicode-range="U+0020-U+F7A2"
  />
<missing-glyph horiz-adv-x="280" 
 />
    <glyph glyph-name=".notdef" horiz-adv-x="280" 
 />
    <glyph glyph-name="acute.dup" 
d="M369 592c0 -11 -4 -24 -28 -35l-133 -59c-6 -3 -11 -5 -18 -5c-26 0 -33 32 -33 40c0 18 11 23 25 29l133 60c11 5 19 5 19 5c20 0 35 -15 35 -35z" />
    <glyph glyph-name="AE.dup" 
d="M499 41c0 -32 -7 -41 -40 -41h-194c-16 0 -41 0 -41 31c0 30 26 30 40 30v122h-111l-25 -122c23 0 46 0 46 -31c0 -30 -25 -30 -40 -30h-71c-15 0 -40 0 -40 30c0 31 22 31 48 31l99 489c-16 0 -40 0 -40 31c0 30 25 30 40 30h281c34 0 40 -10 40 -41v-73
c0 -14 0 -41 -28 -41s-28 27 -28 41v53h-115v-203h115c16 0 40 0 40 -31c0 -30 -25 -30 -40 -30h-115v-225h123v69c0 14 0 41 28 41s28 -27 28 -41v-89zM264 244v306h-37l-62 -306h99z" />
    <glyph glyph-name="ae.dup" 
d="M491 42c0 -34 -9 -42 -42 -42h-174c-13 0 -42 0 -42 31c0 0 0 27 30 30v67h-112l-18 -67c30 -4 30 -27 30 -30c0 -31 -28 -31 -42 -31h-46c-14 0 -42 0 -42 31c0 30 29 30 39 30l95 351c-13 4 -22 15 -22 29c0 31 28 31 42 31h254c34 0 42 -9 42 -42v-49
c0 -12 0 -42 -29 -42c-30 0 -30 29 -30 42v30h-102v-136h103c14 0 42 0 42 -31c0 -30 -29 -30 -42 -30h-103v-153h110v42c0 13 0 42 30 42c29 0 29 -30 29 -42v-61zM263 189v222h-35l-60 -222h95z" />
    <glyph glyph-name="cedilla.dup" 
d="M428 -106c0 -102 -140 -102 -235 -102c-15 0 -31 8 -31 31c0 31 22 31 60 31s137 0 137 40c0 20 -23 38 -67 40c-32 2 -32 22 -32 42v27c0 20 0 42 35 42c34 0 34 -17 34 -54c71 -14 99 -58 99 -97z" />
    <glyph glyph-name="circumflex.dup" 
d="M397 547c34 -21 2 -69 -31 -49l-103 62l-103 -62c-33 -20 -64 29 -31 50l118 75c9 6 21 6 30 0z" />
    <glyph glyph-name="dieresis.dup" 
d="M225 560c0 -25 -20 -45 -45 -45c-26 0 -45 20 -45 45s19 45 45 45c25 0 45 -20 45 -45zM390 560c0 -25 -20 -45 -45 -45c-26 0 -45 20 -45 45s19 45 45 45c25 0 45 -20 45 -45z" />
    <glyph glyph-name="Gcedilla" 
d="M496 240c0 -31 -23 -31 -47 -31v-168c0 -19 0 -41 -34 -41c-35 0 -35 20 -35 42c-20 -23 -62 -53 -119 -53c-119 0 -223 133 -223 317c0 181 103 316 223 316c42 0 82 -15 117 -45c15 34 20 45 41 45c30 0 30 -25 30 -41v-139c0 -20 0 -41 -35 -41c-26 0 -32 12 -34 29
c-17 108 -80 131 -115 131c-78 0 -158 -103 -158 -256c0 -147 76 -255 157 -255c53 0 102 47 114 159h-42c-16 0 -40 0 -40 31c0 30 25 30 40 30h119c15 0 41 0 41 -30zM325 -108c0 -82 -77 -123 -101 -123c-12 0 -24 13 -24 24c0 15 14 19 21 21c9 3 45 15 56 62
c-5 -2 -11 -3 -15 -3c-25 0 -47 19 -47 48c0 24 18 46 48 46c33 0 62 -29 62 -75z" />
    <glyph glyph-name="gcedilla" 
d="M487 189c0 -31 -26 -31 -45 -31v-117c0 -19 0 -41 -35 -41c-7 0 -35 0 -35 34c-32 -28 -72 -42 -113 -42c-115 0 -215 105 -215 244c0 136 98 244 216 244c53 0 94 -21 112 -33c19 32 29 33 39 33c31 0 31 -26 31 -41v-95c0 -18 0 -41 -35 -41c-29 0 -32 16 -34 30
c-12 60 -66 86 -110 86c-79 0 -150 -78 -150 -183c0 -107 72 -183 148 -183c61 0 99 53 109 105h-37c-14 0 -42 0 -42 31c0 30 29 30 42 30h112c14 0 42 0 42 -30zM325 -108c0 -82 -77 -123 -101 -123c-12 0 -24 13 -24 24c0 15 14 19 21 21c9 3 45 15 56 62
c-5 -2 -11 -3 -15 -3c-25 0 -47 19 -47 48c0 24 18 46 48 46c33 0 62 -29 62 -75z" />
    <glyph glyph-name="germandbls.dup" horiz-adv-x="1050" 
d="M464 132c0 -58 -52 -140 -186 -140c-22 0 -104 0 -155 27c0 0 -7 -27 -33 -27c-31 0 -31 26 -31 41v81c0 18 0 42 35 42c32 0 33 -20 34 -34c2 -21 8 -45 53 -58c39 -11 90 -11 98 -11c92 0 120 49 120 75c0 41 -45 64 -75 71l-66 12c-88 16 -113 21 -147 45
c-26 19 -52 49 -52 93c0 66 67 131 181 131c39 0 94 -6 134 -30c4 17 17 30 34 30c31 0 31 -26 31 -41v-82c0 -18 0 -41 -35 -41c-9 0 -28 0 -34 25c-5 25 -17 78 -131 78c-73 0 -115 -35 -115 -66c0 -23 19 -49 83 -62c17 -4 54 -10 74 -14c66 -12 103 -19 140 -52
c23 -21 43 -52 43 -93zM973 132c0 -58 -52 -140 -186 -140c-22 0 -104 0 -155 27c0 0 -7 -27 -33 -27c-31 0 -31 26 -31 41v81c0 18 0 42 35 42c32 0 33 -20 34 -34c2 -21 8 -45 53 -58c39 -11 90 -11 98 -11c92 0 120 49 120 75c0 41 -45 64 -75 71l-66 12
c-88 16 -113 21 -147 45c-26 19 -52 49 -52 93c0 66 67 131 181 131c39 0 94 -6 134 -30c4 17 17 30 34 30c31 0 31 -26 31 -41v-82c0 -18 0 -41 -35 -41c-9 0 -28 0 -34 25c-5 25 -17 78 -131 78c-73 0 -115 -35 -115 -66c0 -23 19 -49 83 -62c17 -4 54 -10 74 -14
c66 -12 103 -19 140 -52c23 -21 43 -52 43 -93z" />
    <glyph glyph-name="hyphen.dup" 
d="M468 306c0 -35 -35 -35 -47 -35h-318c-12 0 -47 0 -47 35s35 35 47 35h318c12 0 47 0 47 -35z" />
    <glyph glyph-name="Kcedilla" 
d="M495 30c0 -30 -26 -30 -41 -30h-75c-16 0 -41 0 -41 31c0 30 26 30 40 30l-140 250l-93 -117v-133h22c16 0 41 0 41 -31c0 -30 -26 -30 -41 -30h-100c-16 0 -41 0 -41 31c0 30 26 30 41 30h22v489h-22c-16 0 -41 0 -41 31c0 30 26 30 41 30h100c16 0 41 0 41 -31
c0 -30 -26 -30 -41 -30h-22v-266l211 266c-14 0 -41 0 -41 30c0 31 26 31 41 31h88c14 0 41 0 41 -30c0 -31 -21 -31 -57 -31l-152 -192l160 -285c1 -2 5 -8 7 -12c29 0 52 0 52 -31zM325 -108c0 -82 -77 -123 -101 -123c-12 0 -24 13 -24 24c0 15 14 19 21 21
c9 3 45 15 56 62c-5 -2 -11 -3 -15 -3c-25 0 -47 19 -47 48c0 24 18 46 48 46c33 0 62 -29 62 -75z" />
    <glyph glyph-name="kcedilla" 
d="M487 30c0 -30 -28 -30 -44 -30h-46c-16 0 -44 0 -44 31c0 19 18 28 18 28l-130 173l-44 -43l-47 -44v-84c20 0 47 0 47 -31c0 -30 -29 -30 -44 -30h-65c-15 0 -44 0 -44 30c0 31 27 31 47 31v350c-20 0 -47 0 -47 31c0 30 29 30 44 30h65c15 0 44 0 44 -30
c0 -31 -27 -31 -47 -31v-185l198 189c-4 2 -14 8 -14 26c0 31 27 31 44 31h57c13 0 42 0 42 -30c0 -31 -26 -31 -48 -31l-144 -139l157 -211c18 0 45 0 45 -31zM325 -108c0 -82 -77 -123 -101 -123c-12 0 -24 13 -24 24c0 15 14 19 21 21c9 3 45 15 56 62
c-5 -2 -11 -3 -15 -3c-25 0 -47 19 -47 48c0 24 18 46 48 46c33 0 62 -29 62 -75z" />
    <glyph glyph-name="Lcedilla" 
d="M488 41c0 -32 -7 -41 -40 -41h-376c-15 0 -40 0 -40 30c0 31 24 31 40 31h37v489h-37c-15 0 -40 0 -40 30c0 31 24 31 40 31h162c15 0 41 0 41 -31c0 -30 -27 -30 -41 -30h-56v-489h241v69c0 21 0 41 35 41c34 0 34 -21 34 -41v-89zM325 -108c0 -82 -77 -123 -101 -123
c-12 0 -24 13 -24 24c0 15 14 19 21 21c9 3 45 15 56 62c-5 -2 -11 -3 -15 -3c-25 0 -47 19 -47 48c0 24 18 46 48 46c33 0 62 -29 62 -75z" />
    <glyph glyph-name="lcedilla" 
d="M480 42c0 -34 -9 -42 -42 -42h-341c-14 0 -42 0 -42 30c0 31 23 31 57 31v350c-34 0 -57 0 -57 31c0 30 28 30 42 30h114c13 0 42 0 42 -31c0 -30 -29 -30 -42 -30h-30v-350h230v42c0 19 0 42 35 42c34 0 34 -24 34 -42v-61zM325 -108c0 -82 -77 -123 -101 -123
c-12 0 -24 13 -24 24c0 15 14 19 21 21c9 3 45 15 56 62c-5 -2 -11 -3 -15 -3c-25 0 -47 19 -47 48c0 24 18 46 48 46c33 0 62 -29 62 -75z" />
    <glyph glyph-name="macron.dup" 
d="M452 560c0 -31 -24 -31 -40 -31h-297c-17 0 -41 0 -41 32c0 31 24 31 40 31h298c17 0 40 0 40 -32z" />
    <glyph glyph-name="Ncedilla" 
d="M496 580c0 -30 -25 -30 -40 -30h-25v-509c0 -38 -12 -41 -42 -41c-26 0 -42 1 -55 36l-184 500h-1v-475h25c16 0 40 0 40 -31c0 -30 -25 -30 -40 -30h-106c-16 0 -40 0 -40 31c0 30 25 30 40 30h25v489h-25c-16 0 -40 0 -40 31c0 30 25 30 40 30h68c27 0 42 -3 54 -36
l184 -500h1v475h-25c-15 0 -40 0 -40 30c0 31 24 31 40 31h106c16 0 40 0 40 -31zM325 -108c0 -82 -77 -123 -101 -123c-12 0 -24 13 -24 24c0 15 14 19 21 21c9 3 45 15 56 62c-5 -2 -11 -3 -15 -3c-25 0 -47 19 -47 48c0 24 18 46 48 46c33 0 62 -29 62 -75z" />
    <glyph glyph-name="ncedilla" 
d="M475 442c0 -31 -25 -31 -48 -31v-369c0 -39 -14 -42 -44 -42c-20 0 -45 0 -61 35l-166 370h-1v-344c23 0 48 0 48 -31c0 -30 -28 -30 -42 -30h-71c-14 0 -42 0 -42 30c0 31 25 31 48 31v350c-23 0 -48 0 -48 31c0 30 28 30 42 30h51c19 0 44 0 60 -35l166 -370h1v344
c-23 0 -48 0 -48 31c0 30 28 30 42 30h71c14 0 42 0 42 -30zM325 -108c0 -82 -77 -123 -101 -123c-12 0 -24 13 -24 24c0 15 14 19 21 21c9 3 45 15 56 62c-5 -2 -11 -3 -15 -3c-25 0 -47 19 -47 48c0 24 18 46 48 46c33 0 62 -29 62 -75z" />
    <glyph glyph-name="OE.dup" 
d="M502 41c0 -32 -7 -41 -40 -41h-165c-9 0 -23 0 -43 -4c-34 -7 -41 -7 -61 -7c-110 0 -137 31 -150 92c-14 63 -14 144 -14 225c0 126 3 178 15 231c15 65 56 85 149 85c17 0 28 0 57 -6c24 -5 35 -5 47 -5h158c34 0 40 -10 40 -41v-73c0 -14 0 -41 -28 -41s-28 27 -28 41
v53h-121v-203h122c16 0 40 0 40 -31c0 -30 -25 -30 -40 -30h-122v-225h128v69c0 14 0 41 28 41s28 -27 28 -41v-89zM262 172v267c0 107 -17 122 -65 122c-112 0 -112 -54 -112 -247c0 -203 0 -264 114 -264c47 0 63 19 63 122z" />
    <glyph glyph-name="oe.dup" 
d="M494 42c0 -34 -9 -42 -42 -42h-156c-12 0 -19 0 -44 -4c-32 -4 -38 -4 -60 -4c-142 0 -156 34 -156 244s14 244 156 244c22 0 28 0 60 -4c25 -4 32 -4 44 -4h149c34 0 42 -9 42 -42v-49c0 -12 0 -42 -29 -42c-30 0 -30 29 -30 42v30h-107v-136h110c14 0 42 0 42 -31
c0 -30 -29 -30 -42 -30h-110v-153h114v42c0 13 0 42 30 42c29 0 29 -30 29 -42v-61zM262 236c0 25 0 103 -2 122c-4 52 -15 61 -63 61c-102 0 -102 -39 -102 -176c0 -147 0 -190 103 -190c46 0 58 9 62 56c2 21 2 101 2 127z" />
    <glyph glyph-name="Oslash.dup" 
d="M468 305c0 -289 -22 -316 -206 -316c-23 0 -44 0 -70 2l-15 -46c-4 -13 -9 -30 -30 -30c0 0 -32 2 -32 30c0 0 0 8 17 59c-50 22 -63 65 -71 143c-5 48 -5 113 -5 158c0 290 21 317 206 317c23 0 44 0 70 -2l15 46c4 13 9 30 30 30c0 0 32 -2 32 -30c0 0 0 -8 -17 -59
c65 -28 76 -97 76 -302zM312 558c0 0 -6 2 -11 2c-11 1 -13 1 -39 1c-79 0 -120 -7 -137 -67c-13 -48 -13 -128 -13 -189c0 -203 21 -218 42 -234zM412 306c0 203 -21 218 -42 234l-158 -487s6 -2 11 -2c11 -1 13 -1 39 -1c79 0 120 7 137 67c13 48 13 128 13 189z" />
    <glyph glyph-name="oslash.dup" 
d="M461 236c0 -222 -20 -244 -200 -244c-13 0 -47 0 -58 1l-17 -47c-6 -17 -12 -32 -33 -32c-13 0 -31 11 -31 30c0 4 12 39 19 59c-68 18 -79 74 -79 233c0 222 20 244 200 244c13 0 47 0 58 -1l17 47c6 17 12 32 33 32c13 0 31 -11 31 -30c0 -4 -12 -39 -19 -59
c68 -18 79 -74 79 -233zM296 419c-158 0 -175 0 -175 -183c0 -106 6 -154 44 -170zM402 236c0 152 -22 161 -45 170l-130 -353c158 0 175 0 175 183z" />
    <glyph glyph-name="quoteleft.dup" 
d="M344 649c0 -16 -10 -21 -18 -26c-79 -46 -82 -118 -82 -137c0 -6 0 -15 4 -15c0 0 7 1 14 1c30 0 50 -23 50 -50c0 -24 -18 -50 -51 -50c-41 0 -78 37 -78 114c0 126 106 195 130 195c14 0 31 -14 31 -32z" />
    <glyph glyph-name="quoteright.dup" 
d="M341 547c0 -126 -106 -195 -130 -195c-14 0 -31 14 -31 32c0 16 10 21 18 26c79 46 82 118 82 137c0 6 0 15 -4 15c0 0 -7 -1 -14 -1c-30 0 -50 23 -50 50c0 24 18 50 51 50c41 0 78 -37 78 -114z" />
    <glyph glyph-name="Rcedilla" 
d="M522 93c0 -38 -24 -104 -87 -104c-34 0 -62 16 -79 46c-19 32 -19 62 -19 127c0 42 0 64 -22 85c-32 28 -62 28 -81 28h-78v-214h25c16 0 40 0 40 -31c0 -30 -25 -30 -40 -30h-119c-15 0 -40 0 -40 30c0 31 24 31 40 31h25v489h-25c-15 0 -40 0 -40 30c0 31 24 31 40 31
h177c118 0 194 -82 194 -168c0 -41 -19 -102 -85 -139c14 -11 37 -32 49 -61c9 -23 9 -31 9 -94c0 -53 0 -99 28 -99c17 0 19 37 19 45c1 30 24 30 34 30c11 0 35 0 35 -32zM364 443c0 48 -44 107 -136 107h-72v-214h72c91 0 136 58 136 107zM325 -108
c0 -82 -77 -123 -101 -123c-12 0 -24 13 -24 24c0 15 14 19 21 21c9 3 45 15 56 62c-5 -2 -11 -3 -15 -3c-25 0 -47 19 -47 48c0 24 18 46 48 46c33 0 62 -29 62 -75z" />
    <glyph glyph-name="rcedilla" 
d="M513 79c0 -39 -31 -87 -87 -87c-30 0 -94 17 -94 111v39c0 19 0 64 -96 64h-76v-145c23 0 48 0 48 -31c0 -30 -28 -30 -42 -30h-81c-14 0 -42 0 -42 30c0 31 25 31 48 31v350c-23 0 -48 0 -48 31c0 30 28 30 42 30h155c114 0 187 -66 187 -133c0 -58 -52 -94 -69 -104
c43 -32 43 -64 43 -115c0 -34 0 -67 25 -67c9 0 17 9 18 28c1 20 14 30 34 30c25 0 35 -14 35 -32zM358 339c0 36 -48 72 -127 72h-71v-144h71c79 0 127 36 127 72zM325 -108c0 -82 -77 -123 -101 -123c-12 0 -24 13 -24 24c0 15 14 19 21 21c9 3 45 15 56 62
c-5 -2 -11 -3 -15 -3c-25 0 -47 19 -47 48c0 24 18 46 48 46c33 0 62 -29 62 -75z" />
    <glyph glyph-name="tilde.dup" 
d="M438 588c0 -18 -29 -40 -49 -55c-23 -17 -51 -33 -78 -33c-34 0 -54 21 -67 34c-13 12 -21 21 -31 21c-14 0 -40 -16 -70 -44c-7 -6 -13 -11 -24 -11c-16 0 -31 16 -31 32c0 18 29 40 49 55c23 17 51 33 78 33c34 0 54 -21 67 -34c13 -12 21 -21 31 -21c14 0 40 16 70 44
c7 6 13 11 24 11c16 0 31 -16 31 -32z" />
    <glyph glyph-name="A" unicode="A" 
d="M497 30c0 -30 -27 -30 -41 -30h-106c-15 0 -40 0 -40 30c0 31 20 31 56 31l-23 104h-162l-23 -104c36 0 56 0 56 -31c0 -30 -25 -30 -40 -30h-106c-14 0 -41 0 -41 30c0 31 26 31 41 31h19l122 525c8 35 20 37 53 37c27 0 45 0 54 -37l121 -525h19c15 0 41 0 41 -31z
M328 226l-47 214s-16 75 -19 98h-1c-2 -22 -15 -83 -28 -145l-37 -167h132z" />
    <glyph glyph-name="a" unicode="a" 
d="M485 30c0 -30 -29 -30 -42 -30h-73c-14 0 -42 0 -42 31c0 12 8 31 37 31l-14 46h-179l-14 -47c6 0 37 0 37 -30c0 -31 -28 -31 -42 -31h-73c-13 0 -42 0 -42 30c0 31 27 31 47 31l120 383c8 24 15 37 53 37h7c39 0 46 -14 53 -37l120 -383c20 0 47 0 47 -31zM332 169
l-70 233l-71 -233h141z" />
    <glyph glyph-name="ampersand" unicode="&#x26;" 
d="M490 400c0 -30 -25 -30 -40 -30h-31l-60 -156c-10 -25 -30 -71 -51 -106c9 -12 47 -58 84 -58c16 0 35 13 39 57c0 5 2 31 28 31c0 0 28 0 28 -33c0 -48 -29 -116 -95 -116c-58 0 -101 51 -117 70c-31 -38 -72 -70 -124 -70c-76 0 -123 72 -123 148c0 46 16 81 35 105
c2 1 60 65 68 73c-21 63 -28 119 -28 162c0 100 54 145 104 145c71 0 92 -76 92 -137c0 -23 0 -82 -101 -187c20 -54 61 -117 74 -138c27 53 60 139 87 210c-17 0 -41 0 -41 31c0 30 25 30 40 30h92c16 0 40 0 40 -31zM243 485c0 9 -2 76 -36 76c-22 0 -48 -26 -48 -84
c0 -8 1 -61 16 -113c50 56 68 92 68 121zM239 108c-17 24 -22 33 -44 72c-14 23 -33 56 -40 72c-47 -52 -58 -64 -58 -112c0 -27 10 -90 55 -90c14 0 50 5 87 58z" />
    <glyph glyph-name="asciicircum" unicode="^" 
d="M437 568c35 -17 11 -69 -24 -54l-151 65l-151 -65c-34 -15 -58 37 -23 54l163 79c7 3 16 3 23 0z" />
    <glyph glyph-name="asciitilde" unicode="~" 
d="M438 334c0 -18 -29 -40 -49 -55c-23 -17 -51 -33 -78 -33c-34 0 -54 21 -67 34c-13 12 -21 21 -31 21c-14 0 -40 -16 -70 -44c-7 -6 -13 -11 -24 -11c-16 0 -31 16 -31 32c0 18 29 40 49 55c23 17 51 33 78 33c34 0 54 -21 67 -34c13 -12 21 -21 31 -21c14 0 40 16 70 44
c7 6 13 11 24 11c16 0 31 -16 31 -32z" />
    <glyph glyph-name="asterisk" unicode="*" 
d="M456 214c0 -15 -13 -33 -33 -33c-8 0 -10 0 -37 16c-70 42 -33 22 -94 56c2 -26 3 -92 3 -121c0 -9 0 -42 -33 -42s-33 33 -33 42c0 29 1 95 3 121l-124 -72c-40 0 -40 29 -40 33c0 20 13 26 25 33l108 59l-109 59c-13 7 -24 13 -24 32c0 15 13 33 33 33c7 0 9 0 23 -9
l108 -63c-2 26 -3 92 -3 121c0 9 0 42 33 42s33 -33 33 -42c0 -29 -1 -95 -3 -121l124 72c40 0 40 -29 40 -33c0 -19 -13 -26 -25 -33l-108 -59c26 -14 94 -47 119 -64c2 -1 14 -10 14 -27z" />
    <glyph glyph-name="at" unicode="@" 
d="M480 80c0 -29 -84 -86 -174 -86c-140 0 -262 133 -262 312c0 180 124 311 260 311c176 0 176 -231 176 -296c0 -173 -96 -215 -145 -215c-74 0 -144 81 -144 200c0 113 65 199 145 199c33 0 61 -18 64 -20c-23 61 -68 71 -96 71c-103 0 -204 -102 -204 -251
c0 -142 97 -250 205 -250c34 0 72 11 107 43c10 10 13 10 30 10c10 0 38 0 38 -28zM424 305c0 81 -44 139 -89 139c-42 0 -88 -55 -88 -139c0 -78 42 -138 89 -138c43 0 88 57 88 138z" />
    <glyph glyph-name="B" unicode="B" 
d="M482 167c0 -78 -60 -167 -173 -167h-246c-14 0 -40 0 -40 30c0 31 25 31 41 31h27v489h-27c-16 0 -41 0 -41 31c0 30 26 30 40 30h226c111 0 172 -82 172 -155c0 -62 -44 -114 -108 -136c81 -19 129 -84 129 -153zM392 455c0 33 -22 95 -107 95h-125v-202h103
c97 0 129 66 129 107zM413 169c0 45 -30 118 -115 118h-138v-226h127c87 0 126 59 126 108z" />
    <glyph glyph-name="b" unicode="b" 
d="M474 131c0 -60 -58 -131 -166 -131h-221c-14 0 -42 0 -42 30c0 31 25 31 50 31v350c-25 0 -50 0 -50 31c0 30 28 30 42 30h202c104 0 165 -63 165 -122c0 -48 -44 -86 -97 -102c58 -13 117 -55 117 -117zM385 349c0 25 -26 62 -99 62h-122v-135h104c78 0 117 40 117 73z
M405 133c0 28 -25 82 -110 82h-131v-154h124c73 0 117 35 117 72z" />
    <glyph glyph-name="backslash" unicode="\" 
d="M466 -48c0 -18 -15 -35 -35 -35c-22 0 -30 17 -35 27l-331 691c-3 6 -7 16 -7 24c0 18 15 35 35 35c22 0 30 -17 35 -27l331 -691c3 -6 7 -16 7 -24z" />
    <glyph glyph-name="bar" unicode="|" 
d="M297 -36c0 -12 0 -47 -35 -47s-35 35 -35 47v683c0 12 0 47 35 47s35 -35 35 -47v-683z" />
    <glyph glyph-name="braceleft" unicode="{" 
d="M467 -52c0 -31 -24 -31 -42 -31c-48 0 -103 7 -145 30c-52 29 -52 74 -52 104v166c-2 54 -111 57 -137 58c-10 0 -34 1 -34 31c0 24 20 30 26 30c23 0 73 1 109 16c36 16 36 31 36 67v90c0 28 0 78 1 84c17 88 126 101 196 101c18 0 42 0 42 -31c0 -24 -20 -30 -26 -30
c-35 0 -123 -2 -141 -40c-3 -8 -3 -48 -3 -73v-132c-1 -25 -16 -58 -58 -83c55 -30 58 -71 58 -96v-161c0 -31 0 -67 136 -70c9 0 34 -1 34 -30z" />
    <glyph glyph-name="braceright" unicode="}" 
d="M467 305c0 -24 -20 -30 -26 -30c-24 0 -72 -1 -108 -16c-36 -16 -36 -31 -36 -67v-90c0 -28 0 -78 -1 -84c-15 -81 -110 -101 -197 -101c-17 0 -42 0 -42 31c0 24 20 30 26 30c145 2 145 38 145 67v178c0 4 2 51 58 83c-43 23 -58 55 -58 95v161c0 33 0 69 -138 71
c-14 0 -33 4 -33 30c0 31 25 31 42 31c35 0 98 -4 146 -30c52 -29 52 -74 52 -102v-167c2 -56 112 -58 136 -59c10 0 34 -1 34 -31z" />
    <glyph glyph-name="bracketleft" unicode="[" 
d="M483 -53c0 -30 -25 -30 -40 -30h-181c-34 0 -40 10 -40 41v695c0 32 7 41 40 41h181c16 0 40 0 40 -31c0 -30 -25 -30 -40 -30h-152v-655h152c16 0 40 0 40 -31z" />
    <glyph glyph-name="bracketright" unicode="]" 
d="M302 -42c0 -32 -7 -41 -40 -41h-181c-16 0 -40 0 -40 31c0 30 25 30 40 30h152v655h-152c-16 0 -40 0 -40 31c0 30 25 30 40 30h181c34 0 40 -10 40 -41v-695z" />
    <glyph glyph-name="C" unicode="C" 
d="M484 168c0 -90 -86 -179 -202 -179c-130 0 -242 134 -242 317c0 182 112 316 241 316c51 0 97 -20 130 -48c13 25 13 27 15 31c5 7 10 17 28 17c30 0 30 -25 30 -41v-139c0 -20 0 -41 -35 -41c-30 0 -32 16 -35 33c-14 81 -69 127 -129 127c-89 0 -176 -106 -176 -255
c0 -150 86 -256 177 -256c41 0 122 24 129 122c2 29 25 29 34 29c11 0 35 0 35 -33z" />
    <glyph glyph-name="c" unicode="c" 
d="M476 130c0 -80 -85 -138 -195 -138c-133 0 -234 112 -234 244c0 134 103 244 233 244c63 0 108 -24 125 -35c17 28 24 35 40 35c31 0 31 -26 31 -41v-95c0 -18 0 -41 -35 -41c-28 0 -32 16 -34 28c-15 68 -81 88 -124 88c-90 0 -167 -80 -167 -183
c0 -99 73 -183 169 -183c45 0 117 20 122 76c1 13 3 33 34 33c8 0 35 0 35 -32z" />
    <glyph glyph-name="colon" unicode=":" 
d="M325 368c0 -31 -25 -62 -63 -62c-32 0 -62 26 -62 63c0 31 25 62 63 62c32 0 62 -26 62 -63zM325 62c0 -31 -25 -62 -63 -62c-32 0 -62 26 -62 63c0 31 25 62 63 62c32 0 62 -26 62 -63z" />
    <glyph glyph-name="comma" unicode="," 
d="M346 25c0 -110 -102 -164 -134 -164c-17 0 -32 17 -32 32c0 20 18 25 28 28c12 4 59 20 74 82c-7 -2 -14 -3 -20 -3c-33 0 -62 25 -62 63c0 32 23 62 63 62c44 0 83 -39 83 -100z" />
    <glyph glyph-name="D" unicode="D" 
d="M485 301c0 -161 -88 -301 -219 -301h-206c-15 0 -41 0 -41 30c0 31 25 31 41 31h22v489h-22c-15 0 -41 0 -41 30c0 31 25 31 41 31h206c133 0 219 -150 219 -310zM416 301c0 116 -56 249 -169 249h-96v-489h96c111 0 169 123 169 240z" />
    <glyph glyph-name="d" unicode="d" 
d="M477 233c0 -124 -85 -233 -211 -233h-185c-13 0 -42 0 -42 30c0 31 27 31 47 31v350c-20 0 -47 0 -47 31c0 30 29 30 42 30h185c130 0 211 -119 211 -239zM408 232c0 84 -54 179 -161 179h-92v-350h92c108 0 161 92 161 171z" />
    <glyph glyph-name="dollar" unicode="$" 
d="M466 171c0 -70 -51 -156 -173 -175v-38c0 -16 0 -41 -30 -41c-31 0 -31 25 -31 41v37c-116 11 -174 88 -174 171c0 46 36 50 45 50c20 0 44 -17 44 -45c0 -23 -10 -31 -16 -35c15 -51 56 -73 101 -79v232c-168 31 -174 139 -174 163c0 74 64 150 174 163v38
c0 16 0 41 31 41c30 0 30 -25 30 -41v-37c118 -10 173 -82 173 -159c0 -37 -24 -49 -45 -49c-27 0 -44 21 -44 44c0 13 5 25 15 33c-16 51 -66 65 -99 69v-208c145 -27 173 -126 173 -175zM232 359v195c-62 -10 -110 -50 -110 -98c0 -51 53 -87 110 -97zM402 167
c0 51 -43 96 -109 109v-218c64 11 109 58 109 109z" />
    <glyph glyph-name="E" unicode="E" 
d="M502 41c0 -32 -7 -41 -40 -41h-395c-15 0 -41 0 -41 30c0 31 25 31 41 31h30v489h-30c-15 0 -41 0 -41 31c0 30 26 30 41 30h373c34 0 40 -10 40 -41v-73c0 -20 0 -41 -35 -41c-34 0 -34 22 -34 41v53h-245v-203h131c0 41 0 57 35 57c34 0 34 -22 34 -41v-93
c0 -19 0 -41 -34 -41c-35 0 -35 16 -35 57h-131v-225h267v69c0 20 0 41 35 41c34 0 34 -22 34 -41v-89z" />
    <glyph glyph-name="e" unicode="e" 
d="M494 42c0 -34 -9 -42 -42 -42h-361c-14 0 -42 0 -42 30c0 31 24 31 52 31v350c-28 0 -52 0 -52 31c0 30 28 30 42 30h340c34 0 42 -9 42 -42v-49c0 -18 0 -42 -35 -42c-34 0 -34 25 -34 42v30h-234v-136h124c0 19 0 43 35 43c34 0 34 -25 34 -42v-63c0 -17 0 -42 -34 -42
c-35 0 -35 24 -35 43h-124v-153h255v42c0 18 0 42 35 42c34 0 34 -25 34 -42v-61z" />
    <glyph glyph-name="eight" unicode="8" 
d="M480 174c0 -97 -92 -185 -218 -185c-125 0 -218 88 -218 185c0 75 64 134 139 155c-79 26 -125 76 -125 133c0 81 84 160 204 160c119 0 204 -78 204 -160c0 -57 -45 -106 -125 -133c74 -21 139 -80 139 -155zM397 461c0 52 -57 100 -135 100c-79 0 -135 -48 -135 -100
c0 -56 62 -101 135 -101s135 44 135 101zM411 175c0 61 -57 124 -149 124c-91 0 -149 -63 -149 -124c0 -69 66 -125 149 -125s149 56 149 125z" />
    <glyph glyph-name="equal" unicode="=" 
d="M486 382c0 -35 -33 -35 -45 -35h-358c-12 0 -45 0 -45 35s37 35 51 35h346c14 0 51 0 51 -35zM486 230c0 -35 -37 -35 -51 -35h-346c-14 0 -51 0 -51 35s33 35 45 35h358c12 0 45 0 45 -35z" />
    <glyph glyph-name="exclam" unicode="!" 
d="M312 565c0 -53 -4 -108 -5 -160l-4 -173c-2 -40 -5 -48 -41 -48c-13 0 -39 0 -40 26l-3 121l-7 234c0 53 41 57 50 57s50 -4 50 -57zM312 50c0 -28 -22 -50 -50 -50s-50 22 -50 50s22 50 50 50s50 -22 50 -50z" />
    <glyph glyph-name="F" unicode="F" 
d="M490 497c0 -20 0 -41 -35 -41c-34 0 -34 22 -34 41v53h-250v-214h136c0 41 0 57 35 57c34 0 34 -22 34 -41v-93c0 -19 0 -41 -34 -41c-35 0 -35 16 -35 57h-136v-214h52c16 0 40 0 40 -31c0 -30 -25 -30 -40 -30h-154c-15 0 -41 0 -41 30c0 31 25 31 41 31h33v489h-33
c-15 0 -41 0 -41 30c0 31 25 31 41 31h381c34 0 40 -10 40 -41v-73z" />
    <glyph glyph-name="f" unicode="f" 
d="M482 381c0 -18 0 -42 -35 -42c-34 0 -34 25 -34 42v30h-238v-144h129c0 19 0 43 35 43c34 0 34 -25 34 -42v-63c0 -17 0 -42 -34 -42c-35 0 -35 24 -35 43h-129v-145h26c15 0 42 0 42 -31c0 -30 -28 -30 -42 -30h-108c-13 0 -42 0 -42 30c0 31 25 31 55 31v350
c-30 0 -55 0 -55 31c0 30 29 30 42 30h347c34 0 42 -9 42 -42v-49z" />
    <glyph glyph-name="five" unicode="5" 
d="M472 190c0 -111 -99 -201 -224 -201c-112 0 -196 70 -196 153c0 39 30 48 45 48c21 0 44 -16 44 -45c0 -20 -8 -27 -13 -32c28 -55 92 -63 120 -63c84 0 155 60 155 140c0 65 -45 138 -127 138c-58 0 -99 -18 -126 -50c-8 -10 -12 -15 -30 -15c-32 0 -32 23 -32 41v266
c0 32 7 41 40 41h269c16 0 40 0 40 -31c0 -30 -25 -30 -40 -30h-240v-190c41 22 85 29 120 29c118 0 195 -98 195 -199z" />
    <glyph glyph-name="four" unicode="4" 
d="M495 199c0 -30 -25 -30 -40 -30h-78v-108h62c16 0 40 0 40 -31c0 -30 -25 -30 -40 -30h-180c-15 0 -40 0 -40 30c0 31 24 31 40 31h62v108h-252c-31 0 -40 7 -40 40c0 20 0 22 9 35l228 358c13 20 18 21 42 21h28c34 0 41 -8 41 -41v-352h78c16 0 40 0 40 -31zM321 230
v349l-222 -349h222z" />
    <glyph glyph-name="G" unicode="G" 
d="M496 240c0 -31 -23 -31 -47 -31v-168c0 -19 0 -41 -34 -41c-35 0 -35 20 -35 42c-20 -23 -62 -53 -119 -53c-119 0 -223 133 -223 317c0 181 103 316 223 316c42 0 82 -15 117 -45c15 34 20 45 41 45c30 0 30 -25 30 -41v-139c0 -20 0 -41 -35 -41c-26 0 -32 12 -34 29
c-17 108 -80 131 -115 131c-78 0 -158 -103 -158 -256c0 -147 76 -255 157 -255c53 0 102 47 114 159h-42c-16 0 -40 0 -40 31c0 30 25 30 40 30h119c15 0 41 0 41 -30z" />
    <glyph glyph-name="g" unicode="g" 
d="M487 189c0 -31 -26 -31 -45 -31v-117c0 -19 0 -41 -35 -41c-7 0 -35 0 -35 34c-32 -28 -72 -42 -113 -42c-115 0 -215 105 -215 244c0 136 98 244 216 244c53 0 94 -21 112 -33c19 32 29 33 39 33c31 0 31 -26 31 -41v-95c0 -18 0 -41 -35 -41c-29 0 -32 16 -34 30
c-12 60 -66 86 -110 86c-79 0 -150 -78 -150 -183c0 -107 72 -183 148 -183c61 0 99 53 109 105h-37c-14 0 -42 0 -42 31c0 30 29 30 42 30h112c14 0 42 0 42 -30z" />
    <glyph glyph-name="grave" unicode="`" 
d="M368 533c0 -8 -7 -40 -33 -40c-7 0 -12 2 -18 5l-133 59c-24 11 -28 24 -28 35c0 20 15 35 35 35c0 0 8 0 19 -5l133 -60c14 -6 25 -11 25 -29z" />
    <glyph glyph-name="greater" unicode="&#x3e;" 
d="M468 306c0 -19 -13 -27 -22 -33l-329 -207c-14 -9 -17 -10 -26 -10c-16 0 -35 12 -35 35c0 19 13 27 24 34l287 181l-287 181c-11 7 -24 15 -24 34c0 23 19 35 35 35c9 0 12 -1 26 -10l333 -209c10 -7 18 -18 18 -31z" />
    <glyph glyph-name="H" unicode="H" 
d="M502 30c0 -30 -25 -30 -40 -30h-119c-16 0 -40 0 -40 31c0 30 25 30 40 30h25v226h-212v-226h25c16 0 40 0 40 -31c0 -30 -25 -30 -40 -30h-119c-15 0 -40 0 -40 30c0 31 24 31 40 31h25v489h-25c-15 0 -40 0 -40 30c0 31 24 31 40 31h119c16 0 40 0 40 -31
c0 -30 -25 -30 -40 -30h-25v-202h212v202h-25c-16 0 -40 0 -40 31c0 30 25 30 40 30h119c16 0 40 0 40 -31c0 -30 -25 -30 -40 -30h-25v-489h25c16 0 40 0 40 -31z" />
    <glyph glyph-name="h" unicode="h" 
d="M480 30c0 -30 -28 -30 -42 -30h-81c-14 0 -42 0 -42 30c0 31 25 31 48 31v154h-203v-154c23 0 48 0 48 -31c0 -30 -28 -30 -42 -30h-81c-14 0 -42 0 -42 30c0 31 25 31 48 31v350c-23 0 -48 0 -48 31c0 30 28 30 42 30h81c14 0 42 0 42 -30c0 -31 -25 -31 -48 -31v-135
h203v135c-23 0 -48 0 -48 31c0 30 28 30 42 30h81c14 0 42 0 42 -30c0 -31 -25 -31 -48 -31v-350c23 0 48 0 48 -31z" />
    <glyph glyph-name="hyphen" unicode="-" 
d="M468 306c0 -35 -35 -35 -47 -35h-318c-12 0 -47 0 -47 35s35 35 47 35h318c12 0 47 0 47 -35z" />
    <glyph glyph-name="I" unicode="I" 
d="M446 30c0 -30 -26 -30 -41 -30h-285c-15 0 -41 0 -41 31c0 30 26 30 41 30h108v489h-108c-15 0 -41 0 -41 31c0 30 26 30 41 30h285c15 0 41 0 41 -31c0 -30 -26 -30 -41 -30h-108v-489h108c15 0 41 0 41 -31z" />
    <glyph glyph-name="i" unicode="i" 
d="M406 30c0 -30 -29 -30 -42 -30h-205c-13 0 -42 0 -42 30c0 31 28 31 42 31h68v350h-68c-13 0 -42 0 -42 30c0 31 28 31 42 31h205c14 0 42 0 42 -31c0 -30 -29 -30 -42 -30h-68v-350h68c14 0 42 0 42 -31z" />
    <glyph glyph-name="J" unicode="J" 
d="M478 581c0 -31 -25 -31 -41 -31h-30v-416c0 -91 -81 -145 -170 -145c-100 0 -166 47 -166 110c0 32 22 47 45 47c25 0 44 -20 44 -44c0 -16 -4 -21 -8 -26c29 -26 77 -26 85 -26c19 0 101 5 101 90v410h-82c-15 0 -41 0 -41 31c0 30 26 30 41 30h181c15 0 41 0 41 -30z
" />
    <glyph glyph-name="j" unicode="j" 
d="M454 442c0 -31 -24 -31 -52 -31v-303c0 -85 -86 -116 -168 -116c-39 0 -154 0 -154 85c0 26 19 43 42 43c21 0 41 -16 41 -42c0 -7 -1 -11 -2 -15c25 -10 66 -10 74 -10c13 0 42 0 68 13c30 15 30 28 30 47v298h-49c-13 0 -42 0 -42 30c0 31 28 31 42 31h128
c14 0 42 0 42 -30z" />
    <glyph glyph-name="K" unicode="K" 
d="M495 30c0 -30 -26 -30 -41 -30h-75c-16 0 -41 0 -41 31c0 30 26 30 40 30l-140 250l-93 -117v-133h22c16 0 41 0 41 -31c0 -30 -26 -30 -41 -30h-100c-16 0 -41 0 -41 31c0 30 26 30 41 30h22v489h-22c-16 0 -41 0 -41 31c0 30 26 30 41 30h100c16 0 41 0 41 -31
c0 -30 -26 -30 -41 -30h-22v-266l211 266c-14 0 -41 0 -41 30c0 31 26 31 41 31h88c14 0 41 0 41 -30c0 -31 -21 -31 -57 -31l-152 -192l160 -285c1 -2 5 -8 7 -12c29 0 52 0 52 -31z" />
    <glyph glyph-name="k" unicode="k" 
d="M487 30c0 -30 -28 -30 -44 -30h-46c-16 0 -44 0 -44 31c0 19 18 28 18 28l-130 173l-44 -43l-47 -44v-84c20 0 47 0 47 -31c0 -30 -29 -30 -44 -30h-65c-15 0 -44 0 -44 30c0 31 27 31 47 31v350c-20 0 -47 0 -47 31c0 30 29 30 44 30h65c15 0 44 0 44 -30
c0 -31 -27 -31 -47 -31v-185l198 189c-4 2 -14 8 -14 26c0 31 27 31 44 31h57c13 0 42 0 42 -30c0 -31 -26 -31 -48 -31l-144 -139l157 -211c18 0 45 0 45 -31z" />
    <glyph glyph-name="L" unicode="L" 
d="M488 41c0 -32 -7 -41 -40 -41h-376c-15 0 -40 0 -40 30c0 31 24 31 40 31h37v489h-37c-15 0 -40 0 -40 30c0 31 24 31 40 31h162c15 0 41 0 41 -31c0 -30 -27 -30 -41 -30h-56v-489h241v69c0 21 0 41 35 41c34 0 34 -21 34 -41v-89z" />
    <glyph glyph-name="l" unicode="l" 
d="M480 42c0 -34 -9 -42 -42 -42h-341c-14 0 -42 0 -42 30c0 31 23 31 57 31v350c-34 0 -57 0 -57 31c0 30 28 30 42 30h114c13 0 42 0 42 -31c0 -30 -29 -30 -42 -30h-30v-350h230v42c0 19 0 42 35 42c34 0 34 -24 34 -42v-61z" />
    <glyph glyph-name="less" unicode="&#x3c;" 
d="M468 91c0 -23 -19 -35 -35 -35c-9 0 -12 1 -26 10l-333 209c-10 7 -18 18 -18 31c0 19 13 27 22 33l329 207c14 9 17 10 26 10c16 0 35 -12 35 -35c0 -19 -13 -27 -24 -34l-287 -181l287 -181c11 -7 24 -15 24 -34z" />
    <glyph glyph-name="M" unicode="M" 
d="M507 30c0 -30 -25 -30 -40 -30h-82c-15 0 -40 0 -40 30c0 31 21 31 53 31v477h-1c-12 -53 -97 -306 -100 -312c-8 -14 -22 -22 -35 -22c-12 0 -24 7 -30 15c-5 7 -18 45 -26 68c-4 13 -68 205 -79 251h-1v-477c32 0 53 0 53 -31c0 -30 -25 -30 -40 -30h-82
c-15 0 -40 0 -40 30c0 31 21 31 53 31v489c-32 0 -53 0 -53 31c0 30 25 30 40 30h56c14 0 39 0 49 -24c2 -6 90 -265 100 -312h1c6 29 15 58 27 94l67 202c9 26 13 40 54 40h56c15 0 40 0 40 -30c0 -31 -21 -31 -53 -31v-489c32 0 53 0 53 -31z" />
    <glyph glyph-name="m" unicode="m" 
d="M488 31c0 -31 -27 -31 -42 -31h-53c-15 0 -42 0 -42 31c0 30 29 30 39 30v340l-1 1l-83 -208c-4 -9 -15 -37 -45 -37c-29 0 -41 29 -44 37l-83 208l-1 -1v-340c10 0 39 0 39 -30c0 -31 -27 -31 -42 -31h-53c-15 0 -42 0 -42 31c0 30 29 30 39 30v350c-10 0 -39 0 -39 30
c0 31 27 31 42 31h43c24 0 43 -2 57 -36l85 -210l84 210c14 35 33 36 57 36h43c15 0 42 0 42 -31c0 -30 -29 -30 -39 -30v-350c10 0 39 0 39 -30z" />
    <glyph glyph-name="N" unicode="N" 
d="M496 580c0 -30 -25 -30 -40 -30h-25v-509c0 -38 -12 -41 -42 -41c-26 0 -42 1 -55 36l-184 500h-1v-475h25c16 0 40 0 40 -31c0 -30 -25 -30 -40 -30h-106c-16 0 -40 0 -40 31c0 30 25 30 40 30h25v489h-25c-16 0 -40 0 -40 31c0 30 25 30 40 30h68c27 0 42 -3 54 -36
l184 -500h1v475h-25c-15 0 -40 0 -40 30c0 31 24 31 40 31h106c16 0 40 0 40 -31z" />
    <glyph glyph-name="n" unicode="n" 
d="M475 442c0 -31 -25 -31 -48 -31v-369c0 -39 -14 -42 -44 -42c-20 0 -45 0 -61 35l-166 370h-1v-344c23 0 48 0 48 -31c0 -30 -28 -30 -42 -30h-71c-14 0 -42 0 -42 30c0 31 25 31 48 31v350c-23 0 -48 0 -48 31c0 30 28 30 42 30h51c19 0 44 0 60 -35l166 -370h1v344
c-23 0 -48 0 -48 31c0 30 28 30 42 30h71c14 0 42 0 42 -30z" />
    <glyph glyph-name="nine" unicode="9" 
d="M471 312c0 -198 -123 -323 -255 -323c-128 0 -146 71 -146 103c0 30 20 47 45 47c26 0 44 -20 44 -44c0 -17 -5 -23 -9 -28c21 -16 57 -17 66 -17c96 0 174 99 184 223c-45 -41 -97 -58 -149 -58c-110 0 -198 89 -198 203c0 121 101 204 212 204c95 0 206 -69 206 -310z
M393 389c0 9 -4 25 -4 30s1 9 1 9c0 6 -12 57 -38 90c-16 20 -44 43 -87 43c-72 0 -143 -56 -143 -143c0 -74 53 -141 134 -141c83 0 137 57 137 112z" />
    <glyph glyph-name="numbersign" unicode="#" 
d="M489 198c0 -35 -35 -35 -47 -35h-76l-16 -122c-2 -12 -5 -41 -36 -41c-21 0 -35 17 -35 35l16 128h-103l-16 -122c-2 -12 -5 -41 -36 -41c-21 0 -35 17 -35 35l16 128h-39c-12 0 -47 0 -47 35s35 35 47 35h49l18 146h-67c-12 0 -47 0 -47 35s35 35 47 35h77l15 121
c1 12 5 41 36 41c15 0 39 -10 34 -47l-14 -115h103l15 121c1 12 5 41 36 41c15 0 39 -10 34 -47l-14 -115h38c12 0 47 0 47 -35s-35 -35 -47 -35h-48l-18 -146h66c12 0 47 0 47 -35zM323 379h-103l-18 -146h103z" />
    <glyph glyph-name="O" unicode="O" 
d="M468 305c0 -289 -22 -316 -206 -316c-185 0 -206 27 -206 316c0 290 21 317 206 317s206 -28 206 -317zM399 314c0 61 0 136 -12 183c-15 55 -50 64 -125 64c-82 0 -113 -12 -126 -71c-11 -46 -11 -114 -11 -176c0 -55 0 -142 12 -193c12 -50 37 -71 125 -71
c89 0 115 21 126 77c11 54 11 125 11 187z" />
    <glyph glyph-name="o" unicode="o" 
d="M461 236c0 -221 -19 -244 -199 -244c-181 0 -200 23 -200 244c0 222 20 244 200 244s199 -23 199 -244zM392 243c0 160 -12 176 -131 176c-118 0 -130 -17 -130 -176c0 -174 14 -190 131 -190c116 0 130 17 130 190z" />
    <glyph glyph-name="one" unicode="1" 
d="M442 30c0 -30 -25 -30 -40 -30h-251c-15 0 -40 0 -40 30c0 31 24 31 40 31h91v422c-44 -38 -85 -44 -104 -44c-15 0 -33 5 -33 30c0 28 21 30 37 31c19 2 71 13 109 98c5 12 11 24 30 24c30 0 30 -25 30 -41v-520h91c16 0 40 0 40 -31z" />
    <glyph glyph-name="P" unicode="P" 
d="M480 428c0 -93 -73 -183 -189 -183h-125v-184h30c15 0 41 0 41 -31c0 -30 -26 -30 -41 -30h-129c-15 0 -41 0 -41 30c0 31 25 31 41 31h30v489h-30c-15 0 -41 0 -41 31c0 30 26 30 41 30h224c115 0 189 -90 189 -183zM411 428c0 53 -43 122 -139 122h-106v-244h106
c96 0 139 69 139 122z" />
    <glyph glyph-name="p" unicode="p" 
d="M473 323c0 -71 -67 -148 -183 -148h-120v-114c28 0 52 0 52 -31c0 -30 -28 -30 -42 -30h-89c-14 0 -42 0 -42 30c0 31 24 31 52 31v350c-28 0 -52 0 -52 31c0 30 28 30 42 30h199c113 0 183 -74 183 -149zM404 324c0 39 -43 87 -132 87h-102v-175h102c85 0 132 45 132 88
z" />
    <glyph glyph-name="parenleft" unicode="(" 
d="M437 -54c0 -8 -5 -28 -31 -28c-24 0 -99 56 -152 129c-35 50 -81 140 -81 259c0 256 204 388 233 388c26 0 31 -20 31 -28c0 -15 -7 -19 -23 -30c-134 -91 -172 -230 -172 -330c0 -112 46 -245 170 -329c18 -12 25 -16 25 -31z" />
    <glyph glyph-name="parenright" unicode=")" 
d="M352 306c0 -256 -204 -388 -233 -388c-25 0 -31 20 -31 28c0 15 8 20 23 30c135 91 172 230 172 330c0 65 -15 226 -179 335c-5 3 -16 10 -16 25c0 8 6 28 31 28c24 0 99 -56 152 -129c35 -50 81 -140 81 -259z" />
    <glyph glyph-name="percent" unicode="%" 
d="M209 560c0 -75 -38 -133 -87 -133c-48 0 -87 56 -87 134c0 75 38 133 87 133c48 0 87 -56 87 -134zM437 659c0 -7 -2 -12 -6 -22l-274 -691c-4 -11 -11 -29 -35 -29c-19 0 -35 16 -35 35c0 7 2 12 6 22l273 689c5 12 12 31 36 31c20 0 35 -17 35 -35zM489 50
c0 -74 -37 -133 -87 -133s-87 59 -87 133s37 133 87 133s87 -59 87 -133zM153 561c0 41 -18 71 -31 71s-31 -30 -31 -71c0 -44 19 -72 31 -72s31 28 31 72zM433 50c0 44 -19 71 -31 71s-31 -27 -31 -71s19 -71 31 -71s31 27 31 71z" />
    <glyph glyph-name="period" unicode="." 
d="M325 62c0 -31 -25 -62 -63 -62c-32 0 -62 26 -62 63c0 31 25 62 63 62c32 0 62 -26 62 -63z" />
    <glyph glyph-name="plus" unicode="+" 
d="M486 306c0 -35 -35 -35 -47 -35h-142v-143c0 -12 0 -47 -35 -47s-35 35 -35 47v143h-142c-12 0 -47 0 -47 35s35 35 47 35h142v143c0 12 0 47 35 47s35 -35 35 -47v-143h142c12 0 47 0 47 -35z" />
    <glyph glyph-name="Q" unicode="Q" 
d="M468 305c0 -46 0 -113 -6 -167c-9 -81 -27 -116 -71 -134c7 -13 25 -47 33 -60c11 -22 31 -58 31 -64c0 -19 -17 -19 -32 -19h-9c-16 0 -27 0 -35 12l-61 117c-11 -1 -43 -1 -56 -1c-185 0 -206 27 -206 316c0 290 21 317 206 317s206 -28 206 -317zM399 306
c0 54 0 122 -9 173c-11 65 -39 82 -128 82c-92 0 -114 -20 -127 -75c-10 -48 -10 -125 -10 -181c0 -54 0 -122 9 -173c10 -54 30 -82 120 -82h32l-46 89c-3 5 -4 8 -4 13c0 19 18 19 32 19h11c20 0 21 -1 30 -16l48 -87c22 15 42 29 42 238z" />
    <glyph glyph-name="q" unicode="q" 
d="M461 236c0 -154 -10 -212 -74 -232c10 -15 27 -40 29 -44c18 -25 28 -39 28 -47c0 -19 -16 -19 -34 -19c-20 0 -29 0 -39 11c-15 18 -44 68 -57 88c-13 -1 -35 -1 -53 -1c-180 0 -199 23 -199 244c0 222 20 244 200 244s199 -23 199 -244zM392 236
c0 166 -13 183 -131 183c-117 0 -130 -17 -130 -183c0 -151 9 -183 116 -183h27c-17 25 -35 51 -35 60c0 19 17 19 32 19h7c22 0 23 -1 40 -27c7 -9 23 -32 29 -41c26 10 45 19 45 172z" />
    <glyph glyph-name="question" unicode="?" 
d="M462 493c0 -52 -37 -81 -66 -97c-93 -51 -109 -108 -109 -155v-17c0 -34 -10 -40 -40 -40c-40 0 -40 13 -40 52c0 40 0 129 145 209c19 10 41 22 41 48c0 31 -39 63 -141 63c-39 0 -86 -7 -111 -35c5 -6 10 -16 10 -28c0 -28 -23 -45 -44 -45s-45 15 -45 47
c0 56 49 122 190 122c185 0 210 -87 210 -124zM297 50c0 -28 -22 -50 -50 -50s-50 22 -50 50s22 50 50 50s50 -22 50 -50z" />
    <glyph glyph-name="quotedbl" unicode="&#x22;" 
d="M218 567l-13 -204c-1 -17 -6 -35 -31 -35c-28 0 -31 21 -32 36l-13 203c-3 44 26 55 45 55c13 0 47 -8 44 -55zM395 567l-13 -204c-1 -17 -6 -35 -31 -35c-28 0 -31 21 -32 36l-13 203c-3 44 26 55 45 55c13 0 47 -8 44 -55z" />
    <glyph glyph-name="quotesingle" unicode="'" 
d="M306 565l-13 -200c-1 -16 -2 -37 -31 -37s-30 21 -31 37l-12 192l-2 20c0 25 20 45 45 45c24 0 47 -15 44 -57z" />
    <glyph glyph-name="R" unicode="R" 
d="M522 93c0 -38 -24 -104 -87 -104c-34 0 -62 16 -79 46c-19 32 -19 62 -19 127c0 42 0 64 -22 85c-32 28 -62 28 -81 28h-78v-214h25c16 0 40 0 40 -31c0 -30 -25 -30 -40 -30h-119c-15 0 -40 0 -40 30c0 31 24 31 40 31h25v489h-25c-15 0 -40 0 -40 30c0 31 24 31 40 31
h177c118 0 194 -82 194 -168c0 -41 -19 -102 -85 -139c14 -11 37 -32 49 -61c9 -23 9 -31 9 -94c0 -53 0 -99 28 -99c17 0 19 37 19 45c1 30 24 30 34 30c11 0 35 0 35 -32zM364 443c0 48 -44 107 -136 107h-72v-214h72c91 0 136 58 136 107z" />
    <glyph glyph-name="r" unicode="r" 
d="M513 79c0 -39 -31 -87 -87 -87c-30 0 -94 17 -94 111v39c0 19 0 64 -96 64h-76v-145c23 0 48 0 48 -31c0 -30 -28 -30 -42 -30h-81c-14 0 -42 0 -42 30c0 31 25 31 48 31v350c-23 0 -48 0 -48 31c0 30 28 30 42 30h155c114 0 187 -66 187 -133c0 -58 -52 -94 -69 -104
c43 -32 43 -64 43 -115c0 -34 0 -67 25 -67c9 0 17 9 18 28c1 20 14 30 34 30c25 0 35 -14 35 -32zM358 339c0 36 -48 72 -127 72h-71v-144h71c79 0 127 36 127 72z" />
    <glyph glyph-name="S" unicode="S" 
d="M472 166c0 -89 -72 -177 -188 -177c-64 0 -125 16 -165 46c-9 -32 -15 -46 -37 -46c-30 0 -30 25 -30 41v132c0 20 0 41 35 41c32 0 33 -18 34 -35c1 -18 5 -60 47 -87c40 -27 89 -31 117 -31c79 0 122 59 122 111c0 87 -83 107 -111 113l-115 27
c-83 24 -129 90 -129 157c0 85 75 164 186 164c45 0 99 -12 140 -47c8 30 13 47 37 47c30 0 30 -25 30 -41v-132c0 -20 0 -41 -35 -41c-20 0 -31 6 -34 28c-6 31 -21 125 -139 125c-71 0 -120 -48 -120 -99c0 -47 38 -82 80 -94l81 -18c78 -18 105 -25 146 -65
c12 -13 48 -55 48 -119z" />
    <glyph glyph-name="s" unicode="s" 
d="M464 132c0 -58 -52 -140 -186 -140c-22 0 -104 0 -155 27c0 0 -7 -27 -33 -27c-31 0 -31 26 -31 41v81c0 18 0 42 35 42c32 0 33 -20 34 -34c2 -21 8 -45 53 -58c39 -11 90 -11 98 -11c92 0 120 49 120 75c0 41 -45 64 -75 71l-66 12c-88 16 -113 21 -147 45
c-26 19 -52 49 -52 93c0 66 67 131 181 131c39 0 94 -6 134 -30c4 17 17 30 34 30c31 0 31 -26 31 -41v-82c0 -18 0 -41 -35 -41c-9 0 -28 0 -34 25c-5 25 -17 78 -131 78c-73 0 -115 -35 -115 -66c0 -23 19 -49 83 -62c17 -4 54 -10 74 -14c66 -12 103 -19 140 -52
c23 -21 43 -52 43 -93z" />
    <glyph glyph-name="semicolon" unicode=";" 
d="M325 368c0 -31 -25 -62 -63 -62c-32 0 -62 26 -62 63c0 31 25 62 63 62c32 0 62 -26 62 -63zM330 27c0 -112 -96 -166 -118 -166c-17 0 -32 17 -32 32c0 16 14 23 20 26c15 8 53 27 66 81c-49 0 -66 35 -66 63c0 34 26 62 62 62c38 0 68 -32 68 -98z" />
    <glyph glyph-name="seven" unicode="7" 
d="M480 580c0 -14 -2 -16 -22 -34c-61 -59 -214 -233 -219 -517c0 -29 -17 -40 -34 -40c-35 0 -35 33 -35 47c0 110 34 330 207 514h-264c0 -28 0 -47 -35 -47c-34 0 -34 22 -34 41v42c0 19 0 41 34 41c8 0 26 0 32 -16h330c16 0 40 0 40 -31z" />
    <glyph glyph-name="six" unicode="6" 
d="M471 193c0 -120 -98 -204 -207 -204c-99 0 -211 73 -211 310c0 202 134 323 268 323c97 0 133 -54 133 -103c0 -30 -20 -47 -45 -47c-26 0 -44 20 -44 44c0 18 5 24 10 29c-5 5 -21 16 -55 16c-88 0 -182 -82 -196 -223c45 41 97 58 149 58c110 0 198 -89 198 -203z
M402 193c0 74 -53 141 -134 141c-76 0 -136 -50 -136 -112c0 -7 2 -24 3 -31l-1 -9l1 -4c2 -6 3 -12 5 -18c20 -61 59 -110 124 -110c72 0 138 57 138 143z" />
    <glyph glyph-name="slash" unicode="/" 
d="M466 659c0 -8 -1 -8 -8 -24l-330 -690c-6 -13 -13 -28 -35 -28c-20 0 -35 17 -35 35c0 8 1 8 8 24l330 690c6 13 13 28 35 28c20 0 35 -17 35 -35z" />
    <glyph glyph-name="space" unicode=" " 
 />
    <glyph glyph-name="T" unicode="T" 
d="M498 497c0 -20 0 -41 -35 -41c-34 0 -34 22 -34 41v53h-132v-489h52c16 0 40 0 40 -31c0 -30 -25 -30 -40 -30h-173c-16 0 -40 0 -40 31c0 30 25 30 40 30h52v489h-133v-53c0 -20 0 -41 -35 -41c-34 0 -34 22 -34 41v73c0 33 8 41 41 41h391c34 0 40 -10 40 -41v-73z" />
    <glyph glyph-name="t" unicode="t" 
d="M490 381c0 -18 0 -42 -35 -42c-34 0 -34 25 -34 42v30h-125v-350h26c15 0 42 0 42 -31c0 -30 -28 -30 -42 -30h-121c-15 0 -42 0 -42 31c0 30 28 30 42 30h26v350h-125v-30c0 -18 0 -42 -35 -42c-34 0 -34 25 -34 42v49c0 34 9 42 42 42h373c34 0 42 -9 42 -42v-49z" />
    <glyph glyph-name="three" unicode="3" 
d="M480 174c0 -93 -85 -185 -216 -185c-123 0 -220 58 -220 147c0 32 22 47 45 47c25 0 44 -20 44 -44c0 -20 -7 -26 -12 -31c26 -47 103 -58 143 -58c91 0 147 63 147 124c0 58 -51 125 -150 125h-46c-16 0 -40 0 -40 31c0 29 15 29 72 33c36 2 61 4 93 30
c27 22 42 57 42 87c0 45 -50 81 -118 81c-9 0 -80 0 -111 -31c3 -3 9 -13 9 -27c0 -28 -23 -45 -44 -45c-20 0 -45 14 -45 47c0 69 70 117 190 117c115 0 188 -67 188 -141c0 -54 -28 -111 -84 -147c66 -30 113 -89 113 -160z" />
    <glyph glyph-name="two" unicode="2" 
d="M472 41c0 -32 -7 -41 -40 -41h-339c-16 0 -41 0 -41 31c0 14 6 19 15 27l221 186c66 55 115 113 115 183c0 88 -77 134 -159 134c-55 0 -102 -31 -117 -77c9 -7 14 -20 14 -32c0 -28 -23 -45 -44 -45c-17 0 -45 11 -45 48c0 85 79 167 197 167c122 0 223 -75 223 -195
c0 -80 -46 -144 -109 -200c-43 -40 -139 -115 -198 -166h238c0 28 0 47 35 47c34 0 34 -22 34 -41v-26z" />
    <glyph glyph-name="U" unicode="U" 
d="M520 581c0 -31 -25 -31 -41 -31h-30v-346c0 -123 -87 -215 -187 -215s-187 92 -187 215v346h-30c-15 0 -41 0 -41 31c0 30 26 30 41 30h129c15 0 41 0 41 -30c0 -31 -26 -31 -41 -31h-30v-341c0 -107 65 -159 118 -159c52 0 118 52 118 159v341h-30c-15 0 -41 0 -41 31
c0 30 26 30 41 30h129c15 0 41 0 41 -30z" />
    <glyph glyph-name="u" unicode="u" 
d="M495 442c0 -31 -24 -31 -52 -31v-249c0 -105 -89 -170 -182 -170c-89 0 -181 63 -181 170v249c-28 0 -52 0 -52 31c0 30 28 30 42 30h89c14 0 42 0 42 -30c0 -31 -24 -31 -52 -31v-245c0 -88 72 -113 113 -113c36 0 112 23 112 113v245c-28 0 -52 0 -52 31
c0 30 28 30 42 30h89c14 0 42 0 42 -30z" />
    <glyph glyph-name="underscore" unicode="_" 
d="M468 -60c0 -35 -35 -35 -47 -35h-318c-12 0 -47 0 -47 35s35 35 47 35h318c12 0 47 0 47 -35z" />
    <glyph glyph-name="V" unicode="V" 
d="M506 581c0 -31 -21 -31 -57 -31l-132 -519c-10 -38 -23 -39 -55 -39c-39 0 -46 5 -55 40l-132 518c-36 0 -57 0 -57 31c0 30 25 30 43 30h98c18 0 43 0 43 -30c0 -31 -21 -31 -56 -31l115 -479h2l115 479c-35 0 -56 0 -56 31c0 30 25 30 43 30h98c18 0 43 0 43 -30z" />
    <glyph glyph-name="v" unicode="v" 
d="M494 442c0 -31 -27 -31 -46 -31l-128 -379c-13 -38 -31 -38 -59 -38c-20 0 -45 0 -55 30l-17 49l-114 338c-19 0 -46 0 -46 31c0 30 29 30 44 30h67c16 0 44 0 44 -31c0 -17 -14 -31 -36 -31l114 -340l113 341c-36 0 -36 25 -36 30c0 31 28 31 44 31h67c15 0 44 0 44 -30
z" />
    <glyph glyph-name="W" unicode="W" 
d="M513 580c0 -30 -27 -30 -38 -30l-72 -523c-5 -35 -29 -35 -41 -35c-7 0 -33 0 -40 25c-1 2 -55 231 -59 276h-1c-4 -40 -58 -274 -61 -281c-10 -20 -30 -20 -39 -20c-12 0 -36 0 -41 35l-72 523h-1c-9 0 -37 0 -37 30c0 31 26 31 41 31h79c16 0 40 0 40 -31
c0 -30 -25 -30 -40 -30h-25l52 -396c7 -54 8 -73 8 -78h1c5 62 52 262 55 269c10 22 30 22 40 22c9 0 32 0 41 -23c1 -6 48 -204 54 -268h1c1 28 8 80 16 141l44 333h-25c-15 0 -40 0 -40 30c0 31 24 31 40 31h79c15 0 41 0 41 -31z" />
    <glyph glyph-name="w" unicode="w" 
d="M502 441c0 -13 -6 -27 -30 -30l-67 -378c-4 -23 -11 -39 -44 -39c-10 0 -28 0 -41 19c-7 11 -52 172 -58 201h-1c-11 -49 -53 -194 -59 -202c-13 -18 -28 -18 -40 -18c-33 0 -40 18 -44 39l-67 378c-24 3 -30 17 -30 30c0 31 27 31 42 31h52c13 0 42 0 42 -30
c0 -31 -27 -31 -46 -31l45 -261l11 -79h1c3 28 24 102 32 129c20 72 24 83 62 83c20 0 36 -6 45 -27c0 0 43 -142 48 -184h1c1 9 4 36 11 78l45 261c-19 0 -46 0 -46 31c0 30 29 30 42 30h52c15 0 42 0 42 -31z" />
    <glyph glyph-name="X" unicode="X" 
d="M496 30c0 -30 -26 -30 -41 -30h-104c-15 0 -40 0 -40 30c0 31 22 31 45 31l-99 194l-92 -194c23 0 47 0 47 -31c0 -30 -26 -30 -41 -30h-104c-15 0 -40 0 -40 30c0 31 24 31 40 31h22l133 264l-120 225h-23c-15 0 -41 0 -41 31c0 30 26 30 41 30h104c15 0 40 0 40 -30
c0 -31 -23 -31 -43 -31l77 -146l71 146c-23 0 -46 0 -46 31c0 30 25 30 40 30h104c15 0 41 0 41 -31c0 -30 -26 -30 -41 -30h-22l-113 -224l141 -265h23c15 0 41 0 41 -31z" />
    <glyph glyph-name="x" unicode="x" 
d="M479 30c0 -30 -28 -30 -44 -30h-68c-17 0 -44 0 -44 31c0 23 16 28 22 30l-89 132l-82 -133c20 -5 24 -20 24 -30c0 -30 -28 -30 -44 -30h-68c-15 0 -44 0 -44 30c0 31 25 31 53 31l124 190l-112 160c-28 0 -53 0 -53 31c0 30 28 30 44 30h68c16 0 44 0 44 -31
c0 -23 -21 -30 -21 -30l67 -96l63 97c-17 5 -23 16 -23 30c0 30 28 30 44 30h67c17 0 44 0 44 -30c0 -31 -24 -31 -52 -31l-106 -160l133 -190c28 0 53 0 53 -31z" />
    <glyph glyph-name="Y" unicode="Y" 
d="M505 580c0 -30 -25 -30 -40 -30h-21l-147 -306v-183h25c16 0 40 0 40 -31c0 -30 -25 -30 -40 -30h-119c-16 0 -40 0 -40 31c0 30 25 30 40 30h25v183l-148 306h-21c-16 0 -40 0 -40 31c0 30 25 30 40 30h104c15 0 40 0 40 -30c0 -31 -22 -31 -46 -31
c10 -21 91 -185 105 -236l105 236c-24 0 -46 0 -46 31c0 30 25 30 40 30h104c16 0 40 0 40 -31z" />
    <glyph glyph-name="y" unicode="y" 
d="M489 442c0 -31 -26 -31 -52 -31l-141 -222v-128c23 0 48 0 48 -31c0 -30 -27 -30 -44 -30h-77c-17 0 -44 0 -44 30c0 31 25 31 48 31v128l-142 222c-25 0 -51 0 -51 31c0 30 29 30 44 30h68c15 0 44 0 44 -30c0 -7 -3 -24 -23 -30l95 -153l94 153c-20 6 -23 22 -23 30
c0 30 29 30 44 30h68c15 0 44 0 44 -30z" />
    <glyph glyph-name="Z" unicode="Z" 
d="M481 41c0 -32 -7 -41 -40 -41h-352c-19 0 -41 0 -41 34c0 10 0 16 10 31l329 485h-258v-53c0 -20 0 -41 -35 -41c-34 0 -34 22 -34 41v73c0 33 8 41 41 41h334c19 0 41 0 41 -34c0 -10 0 -16 -10 -31l-329 -485h275v72c0 20 0 41 35 41c34 0 34 -22 34 -41v-92z" />
    <glyph glyph-name="z" unicode="z" 
d="M473 42c0 -34 -9 -42 -42 -42h-335c-18 0 -42 0 -42 35c0 10 0 18 11 30l306 346h-236v-30c0 -18 0 -42 -35 -42c-34 0 -34 25 -34 42v49c0 34 9 42 42 42h319c18 0 42 0 42 -35c0 -10 0 -18 -11 -30l-306 -346h252v45c0 18 0 42 35 42c34 0 34 -25 34 -42v-64z" />
    <glyph glyph-name="zero" unicode="0" 
d="M474 305c0 -182 -100 -316 -212 -316c-110 0 -212 131 -212 317c0 182 100 316 212 316c110 0 212 -131 212 -317zM405 316c0 147 -70 245 -143 245c-74 0 -143 -99 -143 -245c0 -148 65 -266 143 -266s143 118 143 266z" />
    <glyph glyph-name="Aacute" unicode="&#xc1;" 
d="M497 30c0 -30 -27 -30 -41 -30h-106c-15 0 -40 0 -40 30c0 31 20 31 56 31l-23 104h-162l-23 -104c36 0 56 0 56 -31c0 -30 -25 -30 -40 -30h-106c-14 0 -41 0 -41 30c0 31 26 31 41 31h19l122 525c8 35 20 37 53 37c27 0 45 0 54 -37l121 -525h19c15 0 41 0 41 -31z
M328 226l-47 214s-16 75 -19 98h-1c-2 -22 -15 -83 -28 -145l-37 -167h132zM369 772c0 -11 -4 -24 -28 -35l-133 -59c-6 -3 -11 -5 -18 -5c-26 0 -33 32 -33 40c0 18 11 23 25 29l133 60c11 5 19 5 19 5c20 0 35 -15 35 -35z" />
    <glyph glyph-name="aacute" unicode="&#xe1;" 
d="M485 30c0 -30 -29 -30 -42 -30h-73c-14 0 -42 0 -42 31c0 12 8 31 37 31l-14 46h-179l-14 -47c6 0 37 0 37 -30c0 -31 -28 -31 -42 -31h-73c-13 0 -42 0 -42 30c0 31 27 31 47 31l120 383c8 24 15 37 53 37h7c39 0 46 -14 53 -37l120 -383c20 0 47 0 47 -31zM332 169
l-70 233l-71 -233h141zM369 634c0 -11 -4 -24 -28 -35l-133 -59c-6 -3 -11 -5 -18 -5c-26 0 -33 32 -33 40c0 18 11 23 25 29l133 60c11 5 19 5 19 5c20 0 35 -15 35 -35z" />
    <glyph glyph-name="Abreve" unicode="&#x102;" 
d="M497 30c0 -30 -27 -30 -41 -30h-106c-15 0 -40 0 -40 30c0 31 20 31 56 31l-23 104h-162l-23 -104c36 0 56 0 56 -31c0 -30 -25 -30 -40 -30h-106c-14 0 -41 0 -41 30c0 31 26 31 41 31h19l122 525c8 35 20 37 53 37c27 0 45 0 54 -37l121 -525h19c15 0 41 0 41 -31z
M328 226l-47 214s-16 75 -19 98h-1c-2 -22 -15 -83 -28 -145l-37 -167h132zM439 755c0 -82 -110 -82 -176 -82s-176 0 -176 82c0 19 12 31 31 31c24 0 28 -17 30 -29c5 -20 72 -20 115 -20c42 0 110 0 115 20c2 12 6 29 30 29c20 0 31 -12 31 -31z" />
    <glyph glyph-name="abreve" unicode="&#x103;" 
d="M485 30c0 -30 -29 -30 -42 -30h-73c-14 0 -42 0 -42 31c0 12 8 31 37 31l-14 46h-179l-14 -47c6 0 37 0 37 -30c0 -31 -28 -31 -42 -31h-73c-13 0 -42 0 -42 30c0 31 27 31 47 31l120 383c8 24 15 37 53 37h7c39 0 46 -14 53 -37l120 -383c20 0 47 0 47 -31zM332 169
l-70 233l-71 -233h141zM439 628c0 -82 -110 -82 -176 -82s-176 0 -176 82c0 19 12 31 31 31c24 0 28 -17 30 -29c5 -20 72 -20 115 -20c42 0 110 0 115 20c2 12 6 29 30 29c20 0 31 -12 31 -31z" />
    <glyph glyph-name="Abreveacute" unicode="&#x1eae;" 
d="M497 30c0 -30 -27 -30 -41 -30h-106c-15 0 -40 0 -40 30c0 31 20 31 56 31l-23 104h-162l-23 -104c36 0 56 0 56 -31c0 -30 -25 -30 -40 -30h-106c-14 0 -41 0 -41 30c0 31 26 31 41 31h19l122 525c8 35 20 37 53 37c27 0 45 0 54 -37l121 -525h19c15 0 41 0 41 -31z
M328 226l-47 214s-16 75 -19 98h-1c-2 -22 -15 -83 -28 -145l-37 -167h132zM439 755c0 -82 -110 -82 -176 -82s-176 0 -176 82c0 19 12 31 31 31c24 0 28 -17 30 -29c5 -20 72 -20 115 -20c42 0 110 0 115 20c2 12 6 29 30 29c20 0 31 -12 31 -31zM369 905
c0 -11 -4 -24 -28 -35l-133 -59c-6 -3 -11 -5 -18 -5c-26 0 -33 32 -33 40c0 18 11 23 25 29l133 60c11 5 19 5 19 5c20 0 35 -15 35 -35z" />
    <glyph glyph-name="abreveacute" unicode="&#x1eaf;" 
d="M485 30c0 -30 -29 -30 -42 -30h-73c-14 0 -42 0 -42 31c0 12 8 31 37 31l-14 46h-179l-14 -47c6 0 37 0 37 -30c0 -31 -28 -31 -42 -31h-73c-13 0 -42 0 -42 30c0 31 27 31 47 31l120 383c8 24 15 37 53 37h7c39 0 46 -14 53 -37l120 -383c20 0 47 0 47 -31zM332 169
l-70 233l-71 -233h141zM439 628c0 -82 -110 -82 -176 -82s-176 0 -176 82c0 19 12 31 31 31c24 0 28 -17 30 -29c5 -20 72 -20 115 -20c42 0 110 0 115 20c2 12 6 29 30 29c20 0 31 -12 31 -31zM369 778c0 -11 -4 -24 -28 -35l-133 -59c-6 -3 -11 -5 -18 -5
c-26 0 -33 32 -33 40c0 18 11 23 25 29l133 60c11 5 19 5 19 5c20 0 35 -15 35 -35z" />
    <glyph glyph-name="Abrevedotbelow" unicode="&#x1eb6;" 
d="M497 30c0 -30 -27 -30 -41 -30h-106c-15 0 -40 0 -40 30c0 31 20 31 56 31l-23 104h-162l-23 -104c36 0 56 0 56 -31c0 -30 -25 -30 -40 -30h-106c-14 0 -41 0 -41 30c0 31 26 31 41 31h19l122 525c8 35 20 37 53 37c27 0 45 0 54 -37l121 -525h19c15 0 41 0 41 -31z
M328 226l-47 214s-16 75 -19 98h-1c-2 -22 -15 -83 -28 -145l-37 -167h132zM439 755c0 -82 -110 -82 -176 -82s-176 0 -176 82c0 19 12 31 31 31c24 0 28 -17 30 -29c5 -20 72 -20 115 -20c42 0 110 0 115 20c2 12 6 29 30 29c20 0 31 -12 31 -31zM313 -150
c0 -28 -22 -50 -50 -50s-50 22 -50 50s22 50 50 50s50 -22 50 -50z" />
    <glyph glyph-name="abrevedotbelow" unicode="&#x1eb7;" 
d="M485 30c0 -30 -29 -30 -42 -30h-73c-14 0 -42 0 -42 31c0 12 8 31 37 31l-14 46h-179l-14 -47c6 0 37 0 37 -30c0 -31 -28 -31 -42 -31h-73c-13 0 -42 0 -42 30c0 31 27 31 47 31l120 383c8 24 15 37 53 37h7c39 0 46 -14 53 -37l120 -383c20 0 47 0 47 -31zM332 169
l-70 233l-71 -233h141zM439 628c0 -82 -110 -82 -176 -82s-176 0 -176 82c0 19 12 31 31 31c24 0 28 -17 30 -29c5 -20 72 -20 115 -20c42 0 110 0 115 20c2 12 6 29 30 29c20 0 31 -12 31 -31zM313 -150c0 -28 -22 -50 -50 -50s-50 22 -50 50s22 50 50 50s50 -22 50 -50z
" />
    <glyph glyph-name="Abrevegrave" unicode="&#x1eb0;" 
d="M497 30c0 -30 -27 -30 -41 -30h-106c-15 0 -40 0 -40 30c0 31 20 31 56 31l-23 104h-162l-23 -104c36 0 56 0 56 -31c0 -30 -25 -30 -40 -30h-106c-14 0 -41 0 -41 30c0 31 26 31 41 31h19l122 525c8 35 20 37 53 37c27 0 45 0 54 -37l121 -525h19c15 0 41 0 41 -31z
M328 226l-47 214s-16 75 -19 98h-1c-2 -22 -15 -83 -28 -145l-37 -167h132zM439 755c0 -82 -110 -82 -176 -82s-176 0 -176 82c0 19 12 31 31 31c24 0 28 -17 30 -29c5 -20 72 -20 115 -20c42 0 110 0 115 20c2 12 6 29 30 29c20 0 31 -12 31 -31zM369 846
c0 18 -11 23 -25 29l-133 60c-11 5 -19 5 -19 5c-20 0 -35 -15 -35 -35c0 -11 4 -24 28 -35l133 -59c6 -3 11 -5 18 -5c26 0 33 32 33 40z" />
    <glyph glyph-name="abrevegrave" unicode="&#x1eb1;" 
d="M485 30c0 -30 -29 -30 -42 -30h-73c-14 0 -42 0 -42 31c0 12 8 31 37 31l-14 46h-179l-14 -47c6 0 37 0 37 -30c0 -31 -28 -31 -42 -31h-73c-13 0 -42 0 -42 30c0 31 27 31 47 31l120 383c8 24 15 37 53 37h7c39 0 46 -14 53 -37l120 -383c20 0 47 0 47 -31zM332 169
l-70 233l-71 -233h141zM439 628c0 -82 -110 -82 -176 -82s-176 0 -176 82c0 19 12 31 31 31c24 0 28 -17 30 -29c5 -20 72 -20 115 -20c42 0 110 0 115 20c2 12 6 29 30 29c20 0 31 -12 31 -31zM369 719c0 18 -11 23 -25 29l-133 60c-11 5 -19 5 -19 5
c-20 0 -35 -15 -35 -35c0 -11 4 -24 28 -35l133 -59c6 -3 11 -5 18 -5c26 0 33 32 33 40z" />
    <glyph glyph-name="Abrevehookabove" unicode="&#x1eb2;" 
d="M497 30c0 -30 -27 -30 -41 -30h-106c-15 0 -40 0 -40 30c0 31 20 31 56 31l-23 104h-162l-23 -104c36 0 56 0 56 -31c0 -30 -25 -30 -40 -30h-106c-14 0 -41 0 -41 30c0 31 26 31 41 31h19l122 525c8 35 20 37 53 37c27 0 45 0 54 -37l121 -525h19c15 0 41 0 41 -31z
M328 226l-47 214s-16 75 -19 98h-1c-2 -22 -15 -83 -28 -145l-37 -167h132zM439 755c0 -82 -110 -82 -176 -82s-176 0 -176 82c0 19 12 31 31 31c24 0 28 -17 30 -29c5 -20 72 -20 115 -20c42 0 110 0 115 20c2 12 6 29 30 29c20 0 31 -12 31 -31zM365 913
c0 -25 -18 -43 -38 -52c-31 -14 -42 -23 -42 -32v-14c0 -16 -13 -29 -29 -29s-29 13 -29 29v14c0 45 35 67 77 86l2 1s-2 2 -4 3c-11 6 -25 8 -46 8c-25 0 -36 -9 -36 -13c0 -16 -13 -29 -29 -29c-17 0 -30 13 -30 29c0 50 49 71 95 71c27 0 51 -3 73 -14
c21 -11 36 -33 36 -58z" />
    <glyph glyph-name="abrevehookabove" unicode="&#x1eb3;" 
d="M485 30c0 -30 -29 -30 -42 -30h-73c-14 0 -42 0 -42 31c0 12 8 31 37 31l-14 46h-179l-14 -47c6 0 37 0 37 -30c0 -31 -28 -31 -42 -31h-73c-13 0 -42 0 -42 30c0 31 27 31 47 31l120 383c8 24 15 37 53 37h7c39 0 46 -14 53 -37l120 -383c20 0 47 0 47 -31zM332 169
l-70 233l-71 -233h141zM439 628c0 -82 -110 -82 -176 -82s-176 0 -176 82c0 19 12 31 31 31c24 0 28 -17 30 -29c5 -20 72 -20 115 -20c42 0 110 0 115 20c2 12 6 29 30 29c20 0 31 -12 31 -31zM365 786c0 -25 -18 -43 -38 -52c-31 -14 -42 -23 -42 -32v-14
c0 -16 -13 -29 -29 -29s-29 13 -29 29v14c0 45 35 67 77 86l2 1s-2 2 -4 3c-11 6 -25 8 -46 8c-25 0 -36 -9 -36 -13c0 -16 -13 -29 -29 -29c-17 0 -30 13 -30 29c0 50 49 71 95 71c27 0 51 -3 73 -14c21 -11 36 -33 36 -58z" />
    <glyph glyph-name="Abrevetilde" unicode="&#x1eb4;" 
d="M497 30c0 -30 -27 -30 -41 -30h-106c-15 0 -40 0 -40 30c0 31 20 31 56 31l-23 104h-162l-23 -104c36 0 56 0 56 -31c0 -30 -25 -30 -40 -30h-106c-14 0 -41 0 -41 30c0 31 26 31 41 31h19l122 525c8 35 20 37 53 37c27 0 45 0 54 -37l121 -525h19c15 0 41 0 41 -31z
M328 226l-47 214s-16 75 -19 98h-1c-2 -22 -15 -83 -28 -145l-37 -167h132zM439 755c0 -82 -110 -82 -176 -82s-176 0 -176 82c0 19 12 31 31 31c24 0 28 -17 30 -29c5 -20 72 -20 115 -20c42 0 110 0 115 20c2 12 6 29 30 29c20 0 31 -12 31 -31zM438 914
c0 -18 -29 -40 -49 -55c-23 -17 -51 -33 -78 -33c-34 0 -54 21 -67 34c-13 12 -21 21 -31 21c-14 0 -40 -16 -70 -44c-7 -6 -13 -11 -24 -11c-16 0 -31 16 -31 32c0 18 29 40 49 55c23 17 51 33 78 33c34 0 54 -21 67 -34c13 -12 21 -21 31 -21c14 0 40 16 70 44
c7 6 13 11 24 11c16 0 31 -16 31 -32z" />
    <glyph glyph-name="abrevetilde" unicode="&#x1eb5;" 
d="M485 30c0 -30 -29 -30 -42 -30h-73c-14 0 -42 0 -42 31c0 12 8 31 37 31l-14 46h-179l-14 -47c6 0 37 0 37 -30c0 -31 -28 -31 -42 -31h-73c-13 0 -42 0 -42 30c0 31 27 31 47 31l120 383c8 24 15 37 53 37h7c39 0 46 -14 53 -37l120 -383c20 0 47 0 47 -31zM332 169
l-70 233l-71 -233h141zM439 628c0 -82 -110 -82 -176 -82s-176 0 -176 82c0 19 12 31 31 31c24 0 28 -17 30 -29c5 -20 72 -20 115 -20c42 0 110 0 115 20c2 12 6 29 30 29c20 0 31 -12 31 -31zM438 787c0 -18 -29 -40 -49 -55c-23 -17 -51 -33 -78 -33c-34 0 -54 21 -67 34
c-13 12 -21 21 -31 21c-14 0 -40 -16 -70 -44c-7 -6 -13 -11 -24 -11c-16 0 -31 16 -31 32c0 18 29 40 49 55c23 17 51 33 78 33c34 0 54 -21 67 -34c13 -12 21 -21 31 -21c14 0 40 16 70 44c7 6 13 11 24 11c16 0 31 -16 31 -32z" />
    <glyph glyph-name="Acaron" unicode="&#x1cd;" 
d="M497 30c0 -30 -27 -30 -41 -30h-106c-15 0 -40 0 -40 30c0 31 20 31 56 31l-23 104h-162l-23 -104c36 0 56 0 56 -31c0 -30 -25 -30 -40 -30h-106c-14 0 -41 0 -41 30c0 31 26 31 41 31h19l122 525c8 35 20 37 53 37c27 0 45 0 54 -37l121 -525h19c15 0 41 0 41 -31z
M328 226l-47 214s-16 75 -19 98h-1c-2 -22 -15 -83 -28 -145l-37 -167h132zM390 708l-118 -43c-6 -2 -13 -2 -19 0l-118 43c-35 13 -17 67 19 56l109 -33l109 33c36 11 54 -43 18 -56z" />
    <glyph glyph-name="acaron" unicode="&#x1ce;" 
d="M485 30c0 -30 -29 -30 -42 -30h-73c-14 0 -42 0 -42 31c0 12 8 31 37 31l-14 46h-179l-14 -47c6 0 37 0 37 -30c0 -31 -28 -31 -42 -31h-73c-13 0 -42 0 -42 30c0 31 27 31 47 31l120 383c8 24 15 37 53 37h7c39 0 46 -14 53 -37l120 -383c20 0 47 0 47 -31zM332 169
l-70 233l-71 -233h141zM397 614l-118 -75c-9 -6 -21 -6 -30 0l-120 76c-34 21 -2 69 31 49l103 -62l103 62c33 20 64 -29 31 -50z" />
    <glyph glyph-name="Acircumflex" unicode="&#xc2;" 
d="M497 30c0 -30 -27 -30 -41 -30h-106c-15 0 -40 0 -40 30c0 31 20 31 56 31l-23 104h-162l-23 -104c36 0 56 0 56 -31c0 -30 -25 -30 -40 -30h-106c-14 0 -41 0 -41 30c0 31 26 31 41 31h19l122 525c8 35 20 37 53 37c27 0 45 0 54 -37l121 -525h19c15 0 41 0 41 -31z
M328 226l-47 214s-16 75 -19 98h-1c-2 -22 -15 -83 -28 -145l-37 -167h132zM391 721c35 -13 17 -67 -19 -56l-109 33l-109 -33c-36 -11 -54 43 -18 56l118 43c6 2 13 2 19 0z" />
    <glyph glyph-name="acircumflex" unicode="&#xe2;" 
d="M485 30c0 -30 -29 -30 -42 -30h-73c-14 0 -42 0 -42 31c0 12 8 31 37 31l-14 46h-179l-14 -47c6 0 37 0 37 -30c0 -31 -28 -31 -42 -31h-73c-13 0 -42 0 -42 30c0 31 27 31 47 31l120 383c8 24 15 37 53 37h7c39 0 46 -14 53 -37l120 -383c20 0 47 0 47 -31zM332 169
l-70 233l-71 -233h141zM397 589c34 -21 2 -69 -31 -49l-103 62l-103 -62c-33 -20 -64 29 -31 50l118 75c9 6 21 6 30 0z" />
    <glyph glyph-name="Acircumflexacute" unicode="&#x1ea4;" 
d="M497 30c0 -30 -27 -30 -41 -30h-106c-15 0 -40 0 -40 30c0 31 20 31 56 31l-23 104h-162l-23 -104c36 0 56 0 56 -31c0 -30 -25 -30 -40 -30h-106c-14 0 -41 0 -41 30c0 31 26 31 41 31h19l122 525c8 35 20 37 53 37c27 0 45 0 54 -37l121 -525h19c15 0 41 0 41 -31z
M328 226l-47 214s-16 75 -19 98h-1c-2 -22 -15 -83 -28 -145l-37 -167h132zM391 721c35 -13 17 -67 -19 -56l-109 33l-109 -33c-36 -11 -54 43 -18 56l118 43c6 2 13 2 19 0zM369 884c0 -11 -4 -24 -28 -35l-133 -59c-6 -3 -11 -5 -18 -5c-26 0 -33 32 -33 40
c0 18 11 23 25 29l133 60c11 5 19 5 19 5c20 0 35 -15 35 -35z" />
    <glyph glyph-name="acircumflexacute" unicode="&#x1ea5;" 
d="M485 30c0 -30 -29 -30 -42 -30h-73c-14 0 -42 0 -42 31c0 12 8 31 37 31l-14 46h-179l-14 -47c6 0 37 0 37 -30c0 -31 -28 -31 -42 -31h-73c-13 0 -42 0 -42 30c0 31 27 31 47 31l120 383c8 24 15 37 53 37h7c39 0 46 -14 53 -37l120 -383c20 0 47 0 47 -31zM332 169
l-70 233l-71 -233h141zM391 592c35 -13 17 -67 -19 -56l-109 33l-109 -33c-36 -11 -54 43 -18 56l118 43c6 2 13 2 19 0zM369 755c0 -11 -4 -24 -28 -35l-133 -59c-6 -3 -11 -5 -18 -5c-26 0 -33 32 -33 40c0 18 11 23 25 29l133 60c11 5 19 5 19 5c20 0 35 -15 35 -35z" />
    <glyph glyph-name="Acircumflexdotbelow" unicode="&#x1eac;" 
d="M497 30c0 -30 -27 -30 -41 -30h-106c-15 0 -40 0 -40 30c0 31 20 31 56 31l-23 104h-162l-23 -104c36 0 56 0 56 -31c0 -30 -25 -30 -40 -30h-106c-14 0 -41 0 -41 30c0 31 26 31 41 31h19l122 525c8 35 20 37 53 37c27 0 45 0 54 -37l121 -525h19c15 0 41 0 41 -31z
M328 226l-47 214s-16 75 -19 98h-1c-2 -22 -15 -83 -28 -145l-37 -167h132zM391 721c35 -13 17 -67 -19 -56l-109 33l-109 -33c-36 -11 -54 43 -18 56l118 43c6 2 13 2 19 0zM313 -150c0 -28 -22 -50 -50 -50s-50 22 -50 50s22 50 50 50s50 -22 50 -50z" />
    <glyph glyph-name="acircumflexdotbelow" unicode="&#x1ead;" 
d="M485 30c0 -30 -29 -30 -42 -30h-73c-14 0 -42 0 -42 31c0 12 8 31 37 31l-14 46h-179l-14 -47c6 0 37 0 37 -30c0 -31 -28 -31 -42 -31h-73c-13 0 -42 0 -42 30c0 31 27 31 47 31l120 383c8 24 15 37 53 37h7c39 0 46 -14 53 -37l120 -383c20 0 47 0 47 -31zM332 169
l-70 233l-71 -233h141zM397 589c34 -21 2 -69 -31 -49l-103 62l-103 -62c-33 -20 -64 29 -31 50l118 75c9 6 21 6 30 0zM313 -150c0 -28 -22 -50 -50 -50s-50 22 -50 50s22 50 50 50s50 -22 50 -50z" />
    <glyph glyph-name="Acircumflexgrave" unicode="&#x1ea6;" 
d="M497 30c0 -30 -27 -30 -41 -30h-106c-15 0 -40 0 -40 30c0 31 20 31 56 31l-23 104h-162l-23 -104c36 0 56 0 56 -31c0 -30 -25 -30 -40 -30h-106c-14 0 -41 0 -41 30c0 31 26 31 41 31h19l122 525c8 35 20 37 53 37c27 0 45 0 54 -37l121 -525h19c15 0 41 0 41 -31z
M328 226l-47 214s-16 75 -19 98h-1c-2 -22 -15 -83 -28 -145l-37 -167h132zM391 721c35 -13 17 -67 -19 -56l-109 33l-109 -33c-36 -11 -54 43 -18 56l118 43c6 2 13 2 19 0zM369 825c0 18 -11 23 -25 29l-133 60c-11 5 -19 5 -19 5c-20 0 -35 -15 -35 -35
c0 -11 4 -24 28 -35l133 -59c6 -3 11 -5 18 -5c26 0 33 32 33 40z" />
    <glyph glyph-name="acircumflexgrave" unicode="&#x1ea7;" 
d="M485 30c0 -30 -29 -30 -42 -30h-73c-14 0 -42 0 -42 31c0 12 8 31 37 31l-14 46h-179l-14 -47c6 0 37 0 37 -30c0 -31 -28 -31 -42 -31h-73c-13 0 -42 0 -42 30c0 31 27 31 47 31l120 383c8 24 15 37 53 37h7c39 0 46 -14 53 -37l120 -383c20 0 47 0 47 -31zM332 169
l-70 233l-71 -233h141zM391 592c35 -13 17 -67 -19 -56l-109 33l-109 -33c-36 -11 -54 43 -18 56l118 43c6 2 13 2 19 0zM369 696c0 18 -11 23 -25 29l-133 60c-11 5 -19 5 -19 5c-20 0 -35 -15 -35 -35c0 -11 4 -24 28 -35l133 -59c6 -3 11 -5 18 -5c26 0 33 32 33 40z" />
    <glyph glyph-name="Acircumflexhookabove" unicode="&#x1ea8;" 
d="M497 30c0 -30 -27 -30 -41 -30h-106c-15 0 -40 0 -40 30c0 31 20 31 56 31l-23 104h-162l-23 -104c36 0 56 0 56 -31c0 -30 -25 -30 -40 -30h-106c-14 0 -41 0 -41 30c0 31 26 31 41 31h19l122 525c8 35 20 37 53 37c27 0 45 0 54 -37l121 -525h19c15 0 41 0 41 -31z
M328 226l-47 214s-16 75 -19 98h-1c-2 -22 -15 -83 -28 -145l-37 -167h132zM391 721c35 -13 17 -67 -19 -56l-109 33l-109 -33c-36 -11 -54 43 -18 56l118 43c6 2 13 2 19 0zM467 892c0 -25 -18 -43 -38 -52c-31 -14 -42 -23 -42 -32v-14c0 -16 -13 -29 -29 -29
s-29 13 -29 29v14c0 45 35 67 77 86l2 1s-2 2 -4 3c-11 6 -25 8 -46 8c-25 0 -36 -9 -36 -13c0 -16 -13 -29 -29 -29c-17 0 -30 13 -30 29c0 50 49 71 95 71c27 0 51 -3 73 -14c21 -11 36 -33 36 -58z" />
    <glyph glyph-name="acircumflexhookabove" unicode="&#x1ea9;" 
d="M485 30c0 -30 -29 -30 -42 -30h-73c-14 0 -42 0 -42 31c0 12 8 31 37 31l-14 46h-179l-14 -47c6 0 37 0 37 -30c0 -31 -28 -31 -42 -31h-73c-13 0 -42 0 -42 30c0 31 27 31 47 31l120 383c8 24 15 37 53 37h7c39 0 46 -14 53 -37l120 -383c20 0 47 0 47 -31zM332 169
l-70 233l-71 -233h141zM391 592c35 -13 17 -67 -19 -56l-109 33l-109 -33c-36 -11 -54 43 -18 56l118 43c6 2 13 2 19 0zM467 763c0 -25 -18 -43 -38 -52c-31 -14 -42 -23 -42 -32v-14c0 -16 -13 -29 -29 -29s-29 13 -29 29v14c0 45 35 67 77 86l2 1s-2 2 -4 3
c-11 6 -25 8 -46 8c-25 0 -36 -9 -36 -13c0 -16 -13 -29 -29 -29c-17 0 -30 13 -30 29c0 50 49 71 95 71c27 0 51 -3 73 -14c21 -11 36 -33 36 -58z" />
    <glyph glyph-name="Acircumflextilde" unicode="&#x1eaa;" 
d="M497 30c0 -30 -27 -30 -41 -30h-106c-15 0 -40 0 -40 30c0 31 20 31 56 31l-23 104h-162l-23 -104c36 0 56 0 56 -31c0 -30 -25 -30 -40 -30h-106c-14 0 -41 0 -41 30c0 31 26 31 41 31h19l122 525c8 35 20 37 53 37c27 0 45 0 54 -37l121 -525h19c15 0 41 0 41 -31z
M328 226l-47 214s-16 75 -19 98h-1c-2 -22 -15 -83 -28 -145l-37 -167h132zM391 721c35 -13 17 -67 -19 -56l-109 33l-109 -33c-36 -11 -54 43 -18 56l118 43c6 2 13 2 19 0zM438 893c0 -18 -29 -40 -49 -55c-23 -17 -51 -33 -78 -33c-34 0 -54 21 -67 34
c-13 12 -21 21 -31 21c-14 0 -40 -16 -70 -44c-7 -6 -13 -11 -24 -11c-16 0 -31 16 -31 32c0 18 29 40 49 55c23 17 51 33 78 33c34 0 54 -21 67 -34c13 -12 21 -21 31 -21c14 0 40 16 70 44c7 6 13 11 24 11c16 0 31 -16 31 -32z" />
    <glyph glyph-name="acircumflextilde" unicode="&#x1eab;" 
d="M485 30c0 -30 -29 -30 -42 -30h-73c-14 0 -42 0 -42 31c0 12 8 31 37 31l-14 46h-179l-14 -47c6 0 37 0 37 -30c0 -31 -28 -31 -42 -31h-73c-13 0 -42 0 -42 30c0 31 27 31 47 31l120 383c8 24 15 37 53 37h7c39 0 46 -14 53 -37l120 -383c20 0 47 0 47 -31zM332 169
l-70 233l-71 -233h141zM391 592c35 -13 17 -67 -19 -56l-109 33l-109 -33c-36 -11 -54 43 -18 56l118 43c6 2 13 2 19 0zM438 764c0 -18 -29 -40 -49 -55c-23 -17 -51 -33 -78 -33c-34 0 -54 21 -67 34c-13 12 -21 21 -31 21c-14 0 -40 -16 -70 -44c-7 -6 -13 -11 -24 -11
c-16 0 -31 16 -31 32c0 18 29 40 49 55c23 17 51 33 78 33c34 0 54 -21 67 -34c13 -12 21 -21 31 -21c14 0 40 16 70 44c7 6 13 11 24 11c16 0 31 -16 31 -32z" />
    <glyph glyph-name="acute" unicode="&#xb4;" 
d="M369 592c0 -11 -4 -24 -28 -35l-133 -59c-6 -3 -11 -5 -18 -5c-26 0 -33 32 -33 40c0 18 11 23 25 29l133 60c11 5 19 5 19 5c20 0 35 -15 35 -35z" />
    <glyph glyph-name="uni0301" unicode="&#x301;" horiz-adv-x="0" 
d="M-156 592c0 -11 -4 -24 -28 -35l-133 -59c-6 -3 -11 -5 -18 -5c-26 0 -33 32 -33 40c0 18 11 23 25 29l133 60c11 5 19 5 19 5c20 0 35 -15 35 -35z" />
    <glyph glyph-name="Adblgrave" unicode="&#x200;" 
d="M497 30c0 -30 -27 -30 -41 -30h-106c-15 0 -40 0 -40 30c0 31 20 31 56 31l-23 104h-162l-23 -104c36 0 56 0 56 -31c0 -30 -25 -30 -40 -30h-106c-14 0 -41 0 -41 30c0 31 26 31 41 31h19l122 525c8 35 20 37 53 37c27 0 45 0 54 -37l121 -525h19c15 0 41 0 41 -31z
M328 226l-47 214s-16 75 -19 98h-1c-2 -22 -15 -83 -28 -145l-37 -167h132zM395 685c-13 -15 -35 -16 -50 -3l-77 70c-14 13 -16 35 -3 49c13 15 35 16 50 3l77 -70c14 -13 16 -35 3 -49zM201 685c-13 -15 -35 -16 -50 -3l-77 70c-14 13 -16 35 -3 49c13 15 35 16 50 3
l77 -70c14 -13 16 -35 3 -49z" />
    <glyph glyph-name="adblgrave" unicode="&#x201;" 
d="M485 30c0 -30 -29 -30 -42 -30h-73c-14 0 -42 0 -42 31c0 12 8 31 37 31l-14 46h-179l-14 -47c6 0 37 0 37 -30c0 -31 -28 -31 -42 -31h-73c-13 0 -42 0 -42 30c0 31 27 31 47 31l120 383c8 24 15 37 53 37h7c39 0 46 -14 53 -37l120 -383c20 0 47 0 47 -31zM332 169
l-70 233l-71 -233h141zM401 544c-13 -15 -35 -16 -50 -3l-77 70c-14 13 -16 35 -3 49c13 15 35 16 50 3l77 -70c14 -13 16 -35 3 -49zM207 544c-13 -15 -35 -16 -50 -3l-77 70c-14 13 -16 35 -3 49c13 15 35 16 50 3l77 -70c14 -13 16 -35 3 -49z" />
    <glyph glyph-name="Adieresis" unicode="&#xc4;" 
d="M497 30c0 -30 -27 -30 -41 -30h-106c-15 0 -40 0 -40 30c0 31 20 31 56 31l-23 104h-162l-23 -104c36 0 56 0 56 -31c0 -30 -25 -30 -40 -30h-106c-14 0 -41 0 -41 30c0 31 26 31 41 31h19l122 525c8 35 20 37 53 37c27 0 45 0 54 -37l121 -525h19c15 0 41 0 41 -31z
M328 226l-47 214s-16 75 -19 98h-1c-2 -22 -15 -83 -28 -145l-37 -167h132zM210 708c0 -25 -20 -45 -45 -45c-26 0 -45 20 -45 45s19 45 45 45c25 0 45 -20 45 -45zM405 708c0 -25 -20 -45 -45 -45c-26 0 -45 20 -45 45s19 45 45 45c25 0 45 -20 45 -45z" />
    <glyph glyph-name="adieresis" unicode="&#xe4;" 
d="M485 30c0 -30 -29 -30 -42 -30h-73c-14 0 -42 0 -42 31c0 12 8 31 37 31l-14 46h-179l-14 -47c6 0 37 0 37 -30c0 -31 -28 -31 -42 -31h-73c-13 0 -42 0 -42 30c0 31 27 31 47 31l120 383c8 24 15 37 53 37h7c39 0 46 -14 53 -37l120 -383c20 0 47 0 47 -31zM332 169
l-70 233l-71 -233h141zM225 602c0 -25 -20 -45 -45 -45c-26 0 -45 20 -45 45s19 45 45 45c25 0 45 -20 45 -45zM390 602c0 -25 -20 -45 -45 -45c-26 0 -45 20 -45 45s19 45 45 45c25 0 45 -20 45 -45z" />
    <glyph glyph-name="Adotbelow" unicode="&#x1ea0;" 
d="M497 30c0 -30 -27 -30 -41 -30h-106c-15 0 -40 0 -40 30c0 31 20 31 56 31l-23 104h-162l-23 -104c36 0 56 0 56 -31c0 -30 -25 -30 -40 -30h-106c-14 0 -41 0 -41 30c0 31 26 31 41 31h19l122 525c8 35 20 37 53 37c27 0 45 0 54 -37l121 -525h19c15 0 41 0 41 -31z
M328 226l-47 214s-16 75 -19 98h-1c-2 -22 -15 -83 -28 -145l-37 -167h132zM313 -150c0 -28 -22 -50 -50 -50s-50 22 -50 50s22 50 50 50s50 -22 50 -50z" />
    <glyph glyph-name="adotbelow" unicode="&#x1ea1;" 
d="M485 30c0 -30 -29 -30 -42 -30h-73c-14 0 -42 0 -42 31c0 12 8 31 37 31l-14 46h-179l-14 -47c6 0 37 0 37 -30c0 -31 -28 -31 -42 -31h-73c-13 0 -42 0 -42 30c0 31 27 31 47 31l120 383c8 24 15 37 53 37h7c39 0 46 -14 53 -37l120 -383c20 0 47 0 47 -31zM332 169
l-70 233l-71 -233h141zM313 -150c0 -28 -22 -50 -50 -50s-50 22 -50 50s22 50 50 50s50 -22 50 -50z" />
    <glyph glyph-name="AE" unicode="&#xc6;" 
d="M499 41c0 -32 -7 -41 -40 -41h-194c-16 0 -41 0 -41 31c0 30 26 30 40 30v122h-111l-25 -122c23 0 46 0 46 -31c0 -30 -25 -30 -40 -30h-71c-15 0 -40 0 -40 30c0 31 22 31 48 31l99 489c-16 0 -40 0 -40 31c0 30 25 30 40 30h281c34 0 40 -10 40 -41v-73
c0 -14 0 -41 -28 -41s-28 27 -28 41v53h-115v-203h115c16 0 40 0 40 -31c0 -30 -25 -30 -40 -30h-115v-225h123v69c0 14 0 41 28 41s28 -27 28 -41v-89zM264 244v306h-37l-62 -306h99z" />
    <glyph glyph-name="ae" unicode="&#xe6;" 
d="M491 42c0 -34 -9 -42 -42 -42h-174c-13 0 -42 0 -42 31c0 0 0 27 30 30v67h-112l-18 -67c30 -4 30 -27 30 -30c0 -31 -28 -31 -42 -31h-46c-14 0 -42 0 -42 31c0 30 29 30 39 30l95 351c-13 4 -22 15 -22 29c0 31 28 31 42 31h254c34 0 42 -9 42 -42v-49
c0 -12 0 -42 -29 -42c-30 0 -30 29 -30 42v30h-102v-136h103c14 0 42 0 42 -31c0 -30 -29 -30 -42 -30h-103v-153h110v42c0 13 0 42 30 42c29 0 29 -30 29 -42v-61zM263 189v222h-35l-60 -222h95z" />
    <glyph glyph-name="AEacute" unicode="&#x1fc;" 
d="M499 41c0 -32 -7 -41 -40 -41h-194c-16 0 -41 0 -41 31c0 30 26 30 40 30v122h-111l-25 -122c23 0 46 0 46 -31c0 -30 -25 -30 -40 -30h-71c-15 0 -40 0 -40 30c0 31 22 31 48 31l99 489c-16 0 -40 0 -40 31c0 30 25 30 40 30h281c34 0 40 -10 40 -41v-73
c0 -14 0 -41 -28 -41s-28 27 -28 41v53h-115v-203h115c16 0 40 0 40 -31c0 -30 -25 -30 -40 -30h-115v-225h123v69c0 14 0 41 28 41s28 -27 28 -41v-89zM264 244v306h-37l-62 -306h99zM369 772c0 -11 -4 -24 -28 -35l-133 -59c-6 -3 -11 -5 -18 -5c-26 0 -33 32 -33 40
c0 18 11 23 25 29l133 60c11 5 19 5 19 5c20 0 35 -15 35 -35z" />
    <glyph glyph-name="aeacute" unicode="&#x1fd;" 
d="M491 42c0 -34 -9 -42 -42 -42h-174c-13 0 -42 0 -42 31c0 0 0 27 30 30v67h-112l-18 -67c30 -4 30 -27 30 -30c0 -31 -28 -31 -42 -31h-46c-14 0 -42 0 -42 31c0 30 29 30 39 30l95 351c-13 4 -22 15 -22 29c0 31 28 31 42 31h254c34 0 42 -9 42 -42v-49
c0 -12 0 -42 -29 -42c-30 0 -30 29 -30 42v30h-102v-136h103c14 0 42 0 42 -31c0 -30 -29 -30 -42 -30h-103v-153h110v42c0 13 0 42 30 42c29 0 29 -30 29 -42v-61zM263 189v222h-35l-60 -222h95zM369 634c0 -11 -4 -24 -28 -35l-133 -59c-6 -3 -11 -5 -18 -5
c-26 0 -33 32 -33 40c0 18 11 23 25 29l133 60c11 5 19 5 19 5c20 0 35 -15 35 -35z" />
    <glyph glyph-name="Agrave" unicode="&#xc0;" 
d="M497 30c0 -30 -27 -30 -41 -30h-106c-15 0 -40 0 -40 30c0 31 20 31 56 31l-23 104h-162l-23 -104c36 0 56 0 56 -31c0 -30 -25 -30 -40 -30h-106c-14 0 -41 0 -41 30c0 31 26 31 41 31h19l122 525c8 35 20 37 53 37c27 0 45 0 54 -37l121 -525h19c15 0 41 0 41 -31z
M328 226l-47 214s-16 75 -19 98h-1c-2 -22 -15 -83 -28 -145l-37 -167h132zM368 713c0 -8 -7 -40 -33 -40c-7 0 -12 2 -18 5l-133 59c-24 11 -28 24 -28 35c0 20 15 35 35 35c0 0 8 0 19 -5l133 -60c14 -6 25 -11 25 -29z" />
    <glyph glyph-name="agrave" unicode="&#xe0;" 
d="M485 30c0 -30 -29 -30 -42 -30h-73c-14 0 -42 0 -42 31c0 12 8 31 37 31l-14 46h-179l-14 -47c6 0 37 0 37 -30c0 -31 -28 -31 -42 -31h-73c-13 0 -42 0 -42 30c0 31 27 31 47 31l120 383c8 24 15 37 53 37h7c39 0 46 -14 53 -37l120 -383c20 0 47 0 47 -31zM332 169
l-70 233l-71 -233h141zM368 575c0 -8 -7 -40 -33 -40c-7 0 -12 2 -18 5l-133 59c-24 11 -28 24 -28 35c0 20 15 35 35 35c0 0 8 0 19 -5l133 -60c14 -6 25 -11 25 -29z" />
    <glyph glyph-name="Ahookabove" unicode="&#x1ea2;" 
d="M497 30c0 -30 -27 -30 -41 -30h-106c-15 0 -40 0 -40 30c0 31 20 31 56 31l-23 104h-162l-23 -104c36 0 56 0 56 -31c0 -30 -25 -30 -40 -30h-106c-14 0 -41 0 -41 30c0 31 26 31 41 31h19l122 525c8 35 20 37 53 37c27 0 45 0 54 -37l121 -525h19c15 0 41 0 41 -31z
M328 226l-47 214s-16 75 -19 98h-1c-2 -22 -15 -83 -28 -145l-37 -167h132zM365 801c0 -25 -18 -43 -38 -52c-31 -14 -42 -23 -42 -32v-14c0 -16 -13 -29 -29 -29s-29 13 -29 29v14c0 45 35 67 77 86l2 1s-2 2 -4 3c-11 6 -25 8 -46 8c-25 0 -36 -9 -36 -13
c0 -16 -13 -29 -29 -29c-17 0 -30 13 -30 29c0 50 49 71 95 71c27 0 51 -3 73 -14c21 -11 36 -33 36 -58z" />
    <glyph glyph-name="ahookabove" unicode="&#x1ea3;" 
d="M485 30c0 -30 -29 -30 -42 -30h-73c-14 0 -42 0 -42 31c0 12 8 31 37 31l-14 46h-179l-14 -47c6 0 37 0 37 -30c0 -31 -28 -31 -42 -31h-73c-13 0 -42 0 -42 30c0 31 27 31 47 31l120 383c8 24 15 37 53 37h7c39 0 46 -14 53 -37l120 -383c20 0 47 0 47 -31zM332 169
l-70 233l-71 -233h141zM365 630c0 -25 -18 -43 -38 -52c-31 -14 -42 -23 -42 -32v-14c0 -16 -13 -29 -29 -29s-29 13 -29 29v14c0 45 35 67 77 86l2 1s-2 2 -4 3c-11 6 -25 8 -46 8c-25 0 -36 -9 -36 -13c0 -16 -13 -29 -29 -29c-17 0 -30 13 -30 29c0 50 49 71 95 71
c27 0 51 -3 73 -14c21 -11 36 -33 36 -58z" />
    <glyph glyph-name="Alpha" unicode="&#x391;" 
d="M497 30c0 -30 -27 -30 -41 -30h-106c-15 0 -40 0 -40 30c0 31 20 31 56 31l-23 104h-162l-23 -104c36 0 56 0 56 -31c0 -30 -25 -30 -40 -30h-106c-14 0 -41 0 -41 30c0 31 26 31 41 31h19l122 525c8 35 20 37 53 37c27 0 45 0 54 -37l121 -525h19c15 0 41 0 41 -31z
M328 226l-47 214s-16 75 -19 98h-1c-2 -22 -15 -83 -28 -145l-37 -167h132z" />
    <glyph glyph-name="Amacron" unicode="&#x100;" 
d="M497 30c0 -30 -27 -30 -41 -30h-106c-15 0 -40 0 -40 30c0 31 20 31 56 31l-23 104h-162l-23 -104c36 0 56 0 56 -31c0 -30 -25 -30 -40 -30h-106c-14 0 -41 0 -41 30c0 31 26 31 41 31h19l122 525c8 35 20 37 53 37c27 0 45 0 54 -37l121 -525h19c15 0 41 0 41 -31z
M328 226l-47 214s-16 75 -19 98h-1c-2 -22 -15 -83 -28 -145l-37 -167h132zM452 714c0 -31 -24 -31 -40 -31h-297c-17 0 -41 0 -41 32c0 31 24 31 40 31h298c17 0 40 0 40 -32z" />
    <glyph glyph-name="amacron" unicode="&#x101;" 
d="M485 30c0 -30 -29 -30 -42 -30h-73c-14 0 -42 0 -42 31c0 12 8 31 37 31l-14 46h-179l-14 -47c6 0 37 0 37 -30c0 -31 -28 -31 -42 -31h-73c-13 0 -42 0 -42 30c0 31 27 31 47 31l120 383c8 24 15 37 53 37h7c39 0 46 -14 53 -37l120 -383c20 0 47 0 47 -31zM332 169
l-70 233l-71 -233h141zM452 602c0 -31 -24 -31 -40 -31h-297c-17 0 -41 0 -41 32c0 31 24 31 40 31h298c17 0 40 0 40 -32z" />
    <glyph glyph-name="anglearc" unicode="&#x2222;" 
d="M486 116c0 -19 -16 -35 -35 -35c-6 0 -11 1 -16 4l-73 37c-6 -10 -13 -19 -20 -28c-6 -8 -16 -13 -27 -13c-19 0 -35 16 -35 35c0 8 3 16 7 22l12 15l-242 122c-11 5 -19 17 -19 31s8 26 19 31l242 122l-12 15c-4 6 -7 14 -7 22c0 19 16 35 35 35c11 0 21 -5 27 -13
c7 -9 14 -18 20 -28l73 37c5 3 10 4 16 4c19 0 35 -16 35 -35c0 -14 -8 -26 -19 -31l-74 -37c15 -39 23 -80 23 -122s-8 -83 -23 -122l74 -37c11 -5 19 -17 19 -31zM346 306c0 31 -5 61 -16 90l-179 -90l179 -90c11 29 16 59 16 90z" />
    <glyph glyph-name="angleleft" unicode="&#x2329;" 
d="M449 -47c0 -18 -16 -36 -35 -36c-24 0 -33 22 -45 39l-185 285c-11 19 -33 42 -35 61v3c0 24 30 58 48 85l144 222c17 28 42 79 67 82l7 1c19 0 34 -16 34 -35c0 -11 -6 -19 -11 -28c-56 -80 -105 -163 -159 -244c-17 -27 -51 -71 -51 -82c0 -6 6 -13 10 -18l177 -273
c12 -19 34 -41 34 -62z" />
    <glyph glyph-name="angleright" unicode="&#x232a;" 
d="M375 307c0 -13 -6 -22 -13 -32l-181 -278l-33 -51c-9 -15 -19 -29 -38 -29s-35 16 -35 35s21 44 35 64l138 213c16 24 48 65 48 78c-1 7 -9 16 -13 22l-185 285c-9 14 -23 28 -23 46c0 16 12 32 29 34l7 1c21 0 31 -21 42 -37l85 -131l99 -152c12 -20 36 -45 38 -65v-3z
" />
    <glyph glyph-name="Aogonek" unicode="&#x104;" 
d="M497 30c0 -30 -26 -30 -43 -30h-21c-53 -31 -87 -67 -87 -110c0 -24 26 -39 44 -39c20 0 43 21 54 37c6 6 28 10 37 5c8 -7 12 -28 5 -37c-24 -33 -62 -59 -100 -59c-63 0 -99 52 -99 95c0 47 26 83 65 108c-18 0 -42 0 -42 30c0 31 20 31 56 31l-23 104h-162l-23 -104
c36 0 56 0 56 -31c0 -30 -24 -30 -42 -30h-102c-17 0 -43 0 -43 30c0 13 6 23 17 29c6 2 29 2 43 2l121 524c9 38 25 38 54 38c31 0 45 -1 54 -39l121 -523c15 0 37 0 43 -3c12 -5 17 -15 17 -28zM328 226l-66 314l-66 -314h132z" />
    <glyph glyph-name="aogonek" unicode="&#x105;" 
d="M490 -130c-21 -29 -55 -53 -90 -53c-56 0 -89 47 -89 86c0 42 24 75 59 97c-19 0 -42 0 -42 31c0 12 8 31 37 31l-14 46h-179l-14 -47c6 0 37 0 37 -30c0 -31 -28 -31 -42 -31h-73c-13 0 -42 0 -42 30c0 31 27 31 47 31l120 383c8 24 15 37 53 37h7c39 0 46 -14 53 -37
l120 -383c20 0 47 0 47 -31c0 -30 -29 -30 -42 -30c-48 -27 -79 -60 -79 -99c0 -22 24 -35 40 -35c18 0 39 19 49 33c5 6 25 9 33 5c7 -7 11 -25 4 -34zM332 169l-70 233l-71 -233h141z" />
    <glyph glyph-name="Aring" unicode="&#xc5;" 
d="M497 30c0 -30 -27 -30 -41 -30h-106c-15 0 -40 0 -40 30c0 31 20 31 56 31l-23 104h-162l-23 -104c36 0 56 0 56 -31c0 -30 -25 -30 -40 -30h-106c-14 0 -41 0 -41 30c0 31 26 31 41 31h19l122 525c8 35 20 37 53 37c27 0 45 0 54 -37l121 -525h19c15 0 41 0 41 -31z
M328 226l-47 214s-16 75 -19 98h-1c-2 -22 -15 -83 -28 -145l-37 -167h132zM310 695c0 19 -24 34 -47 34s-47 -15 -47 -34s24 -34 47 -34s47 15 47 34zM360 695c0 -37 -41 -72 -97 -72s-97 35 -97 72s41 72 97 72s97 -35 97 -72z" />
    <glyph glyph-name="aring" unicode="&#xe5;" 
d="M485 30c0 -30 -29 -30 -42 -30h-73c-14 0 -42 0 -42 31c0 12 8 31 37 31l-14 46h-179l-14 -47c6 0 37 0 37 -30c0 -31 -28 -31 -42 -31h-73c-13 0 -42 0 -42 30c0 31 27 31 47 31l120 383c8 24 15 37 53 37h7c39 0 46 -14 53 -37l120 -383c20 0 47 0 47 -31zM332 169
l-70 233l-71 -233h141zM310 606c0 20 -24 34 -47 34s-47 -14 -47 -34s24 -34 47 -34s47 14 47 34zM360 606c0 -37 -41 -72 -97 -72s-97 35 -97 72s41 72 97 72s97 -35 97 -72z" />
    <glyph glyph-name="Aringacute" unicode="&#x1fa;" 
d="M497 30c0 -30 -27 -30 -41 -30h-106c-15 0 -40 0 -40 30c0 31 20 31 56 31l-23 104h-162l-23 -104c36 0 56 0 56 -31c0 -30 -25 -30 -40 -30h-106c-14 0 -41 0 -41 30c0 31 26 31 41 31h19l122 525c8 35 20 37 53 37c27 0 45 0 54 -37l121 -525h19c15 0 41 0 41 -31z
M328 226l-47 214s-16 75 -19 98h-1c-2 -22 -15 -83 -28 -145l-37 -167h132zM310 695c0 19 -24 34 -47 34s-47 -15 -47 -34s24 -34 47 -34s47 15 47 34zM360 695c0 -37 -41 -72 -97 -72s-97 35 -97 72s41 72 97 72s97 -35 97 -72zM369 886c0 -11 -4 -24 -28 -35l-133 -59
c-6 -3 -11 -5 -18 -5c-26 0 -33 32 -33 40c0 18 11 23 25 29l133 60c11 5 19 5 19 5c20 0 35 -15 35 -35z" />
    <glyph glyph-name="aringacute" unicode="&#x1fb;" 
d="M485 30c0 -30 -29 -30 -42 -30h-73c-14 0 -42 0 -42 31c0 12 8 31 37 31l-14 46h-179l-14 -47c6 0 37 0 37 -30c0 -31 -28 -31 -42 -31h-73c-13 0 -42 0 -42 30c0 31 27 31 47 31l120 383c8 24 15 37 53 37h7c39 0 46 -14 53 -37l120 -383c20 0 47 0 47 -31zM332 169
l-70 233l-71 -233h141zM310 606c0 19 -24 34 -47 34s-47 -15 -47 -34s24 -34 47 -34s47 15 47 34zM360 606c0 -37 -41 -72 -97 -72s-97 35 -97 72s41 72 97 72s97 -35 97 -72zM369 797c0 -11 -4 -24 -28 -35l-133 -59c-6 -3 -11 -5 -18 -5c-26 0 -33 32 -33 40
c0 18 11 23 25 29l133 60c11 5 19 5 19 5c20 0 35 -15 35 -35z" />
    <glyph glyph-name="uni2193" unicode="&#x2193;" 
d="M464 168c0 -14 -10 -26 -23 -28c-69 -12 -127 -58 -153 -122c-5 -11 -15 -18 -27 -18c-11 0 -21 7 -26 18c-26 64 -84 110 -153 122c-13 2 -23 14 -23 28v14c0 15 13 28 33 28c50 -9 96 -31 134 -64v430c0 23 18 35 35 35c18 0 36 -12 36 -35v-430c38 33 84 55 134 64
c20 0 33 -13 33 -28v-14z" />
    <glyph glyph-name="uni2190" unicode="&#x2190;" 
d="M495 306c0 -33 -29 -35 -50 -35h-303c19 -33 37 -75 37 -113c-1 -20 -18 -27 -36 -27c-34 0 -32 28 -38 48c-5 22 -14 43 -27 62c-15 22 -49 43 -49 65c0 14 11 23 21 32c27 27 47 58 55 95c6 20 4 48 38 48c18 0 35 -7 36 -27c0 -38 -18 -80 -37 -113h303
c22 0 50 -4 50 -35z" />
    <glyph glyph-name="uni2192" unicode="&#x2192;" 
d="M495 306c0 -15 -11 -23 -21 -32c-27 -27 -47 -58 -55 -95c-6 -20 -4 -48 -38 -48c-18 0 -35 7 -36 27c0 38 18 80 37 113h-303c-22 0 -50 4 -50 35c0 33 29 35 50 35h303c-19 33 -37 75 -37 113c1 20 18 27 36 27c34 0 32 -28 38 -48c5 -22 14 -43 27 -62
c15 -23 49 -43 49 -65z" />
    <glyph glyph-name="uni2191" unicode="&#x2191;" 
d="M464 429c0 -15 -13 -28 -33 -27c-50 8 -96 30 -134 63v-430c0 -23 -18 -35 -36 -35c-17 0 -35 12 -35 35v430c-38 -33 -84 -55 -134 -63c-20 -1 -33 12 -33 27v14c0 14 10 26 23 28c69 12 127 58 153 123c5 10 15 17 27 17c11 0 21 -7 26 -17c26 -65 84 -111 153 -123
c13 -2 23 -14 23 -28v-14z" />
    <glyph glyph-name="asterisk.math" unicode="&#x2217;" 
d="M455 217c0 -16 -13 -35 -33 -35c-14 0 -26 10 -38 17l-91 55c0 -36 2 -73 2 -109v-15c0 -17 -8 -38 -33 -38c-19 0 -33 13 -33 35v10c0 13 0 26 1 39v33c0 15 1 30 1 45l-91 -55c-12 -7 -24 -17 -38 -17c-20 0 -33 19 -33 35c0 17 13 28 29 35l27 15c24 13 48 29 74 39v2
c-26 10 -50 26 -74 39l-27 15c-16 7 -29 18 -29 35c0 16 13 35 33 35c14 0 26 -10 38 -17l91 -55c0 15 -1 30 -1 45v33c-1 13 -1 26 -1 39v10c0 22 14 35 33 35c25 0 33 -21 33 -38v-15c0 -36 -2 -73 -2 -109l91 55c12 7 24 17 38 17c20 0 33 -19 33 -35
c0 -17 -13 -28 -29 -35l-27 -15c-24 -13 -48 -29 -74 -39v-2c26 -10 50 -26 74 -39l27 -15c16 -7 29 -18 29 -35z" />
    <glyph glyph-name="Atilde" unicode="&#xc3;" 
d="M497 30c0 -30 -27 -30 -41 -30h-106c-15 0 -40 0 -40 30c0 31 20 31 56 31l-23 104h-162l-23 -104c36 0 56 0 56 -31c0 -30 -25 -30 -40 -30h-106c-14 0 -41 0 -41 30c0 31 26 31 41 31h19l122 525c8 35 20 37 53 37c27 0 45 0 54 -37l121 -525h19c15 0 41 0 41 -31z
M328 226l-47 214s-16 75 -19 98h-1c-2 -22 -15 -83 -28 -145l-37 -167h132zM438 751c0 -18 -29 -40 -49 -55c-23 -17 -51 -33 -78 -33c-34 0 -54 21 -67 34c-13 12 -21 21 -31 21c-14 0 -40 -16 -70 -44c-7 -6 -13 -11 -24 -11c-16 0 -31 16 -31 32c0 18 29 40 49 55
c23 17 51 33 78 33c34 0 54 -21 67 -34c13 -12 21 -21 31 -21c14 0 40 16 70 44c7 6 13 11 24 11c16 0 31 -16 31 -32z" />
    <glyph glyph-name="atilde" unicode="&#xe3;" 
d="M485 30c0 -30 -29 -30 -42 -30h-73c-14 0 -42 0 -42 31c0 12 8 31 37 31l-14 46h-179l-14 -47c6 0 37 0 37 -30c0 -31 -28 -31 -42 -31h-73c-13 0 -42 0 -42 30c0 31 27 31 47 31l120 383c8 24 15 37 53 37h7c39 0 46 -14 53 -37l120 -383c20 0 47 0 47 -31zM332 169
l-70 233l-71 -233h141zM438 630c0 -18 -29 -40 -49 -55c-23 -17 -51 -33 -78 -33c-34 0 -54 21 -67 34c-13 12 -21 21 -31 21c-14 0 -40 -16 -70 -44c-7 -6 -13 -11 -24 -11c-16 0 -31 16 -31 32c0 18 29 40 49 55c23 17 51 33 78 33c34 0 54 -21 67 -34
c13 -12 21 -21 31 -21c14 0 40 16 70 44c7 6 13 11 24 11c16 0 31 -16 31 -32z" />
    <glyph glyph-name="baht" unicode="&#xe3f;" 
d="M482 167c0 -78 -60 -167 -173 -167h-24l1 -62c0 -17 -14 -31 -31 -31c-18 0 -31 14 -31 31v62h-161c-14 0 -40 0 -40 30c0 31 25 31 41 31h27v489h-27c-16 0 -41 0 -41 31c0 30 26 30 40 30h160l1 62c0 17 13 31 31 31c17 0 31 -14 31 -31v-62h3c111 0 172 -82 172 -155
c0 -62 -44 -114 -108 -136c81 -19 129 -84 129 -153zM392 455c0 33 -22 95 -106 95v-201c79 10 106 68 106 106zM224 348v202h-64v-202h64zM413 169c0 45 -30 118 -115 118h-12v-226h1c87 0 126 59 126 108zM224 61l-1 226h-63v-226h64z" />
    <glyph glyph-name="Beta" unicode="&#x392;" 
d="M482 167c0 -78 -60 -167 -173 -167h-246c-14 0 -40 0 -40 30c0 31 25 31 41 31h27v489h-27c-16 0 -41 0 -41 31c0 30 26 30 40 30h226c111 0 172 -82 172 -155c0 -62 -44 -114 -108 -136c81 -19 129 -84 129 -153zM392 455c0 33 -22 95 -107 95h-125v-202h103
c97 0 129 66 129 107zM413 169c0 45 -30 118 -115 118h-138v-226h127c87 0 126 59 126 108z" />
    <glyph glyph-name="blanksymbol" unicode="&#x2422;" 
d="M474 131c0 -60 -58 -131 -166 -131h-221c-14 0 -42 0 -42 30c0 31 25 31 50 31v237c-5 -5 -12 -7 -19 -7c-17 0 -31 14 -31 31c0 9 4 18 11 24l39 33v32c-25 0 -50 0 -50 31c0 30 28 30 42 30h118l93 79c5 4 12 7 20 7c17 0 31 -14 31 -31c0 -9 -5 -18 -11 -24l-38 -31
c97 -5 154 -65 154 -122c0 -48 -44 -86 -97 -102c58 -13 117 -55 117 -117zM385 349c0 25 -26 62 -99 62h-122v-135h104c78 0 117 40 117 73zM405 133c0 28 -25 82 -110 82h-131v-154h124c73 0 117 35 117 72z" />
    <glyph glyph-name="breve" unicode="&#x2d8;" 
d="M439 586c0 -82 -110 -82 -176 -82s-176 0 -176 82c0 19 12 31 31 31c24 0 28 -17 30 -29c5 -20 72 -20 115 -20c42 0 110 0 115 20c2 12 6 29 30 29c20 0 31 -12 31 -31z" />
    <glyph glyph-name="uni032E" unicode="&#x32e;" horiz-adv-x="0" 
d="M-86 -124c0 -82 -110 -82 -176 -82s-176 0 -176 82c0 19 12 31 31 31c24 0 28 -17 30 -29c5 -20 72 -20 115 -20c42 0 110 0 115 20c2 12 6 29 30 29c20 0 31 -12 31 -31z" />
    <glyph glyph-name="uni032F" unicode="&#x32f;" horiz-adv-x="0" 
d="M-86 -175c0 -19 -12 -31 -31 -31c-24 0 -28 17 -30 29c-5 20 -72 20 -115 20c-42 0 -110 0 -115 -20c-2 -12 -6 -29 -30 -29c-20 0 -31 12 -31 31c0 82 110 82 176 82s176 0 176 -82z" />
    <glyph glyph-name="uni0306" unicode="&#x306;" horiz-adv-x="0" 
d="M-86 586c0 -82 -110 -82 -176 -82s-176 0 -176 82c0 19 12 31 31 31c24 0 28 -17 30 -29c5 -20 72 -20 115 -20c42 0 110 0 115 20c2 12 6 29 30 29c20 0 31 -12 31 -31z" />
    <glyph glyph-name="uni0311" unicode="&#x311;" horiz-adv-x="0" 
d="M-86 535c0 -19 -12 -31 -31 -31c-24 0 -28 17 -30 29c-5 20 -72 20 -115 20c-42 0 -110 0 -115 -20c-2 -12 -6 -29 -30 -29c-20 0 -31 12 -31 31c0 82 110 82 176 82s176 0 176 -82z" />
    <glyph glyph-name="brokenbar" unicode="&#xa6;" 
d="M297 374c0 -18 -16 -31 -35 -31s-35 13 -35 31v273c0 12 0 47 35 47s35 -35 35 -47v-273zM297 -36c0 -12 0 -47 -35 -47s-35 35 -35 47v273c0 18 16 31 35 31s35 -13 35 -31v-273z" />
    <glyph glyph-name="bullet" unicode="&#x2022;" 
d="M422 254c0 -79 -64 -158 -160 -158c-82 0 -158 66 -158 160c0 79 64 158 160 158c82 0 158 -66 158 -160z" />
    <glyph glyph-name="Cacute" unicode="&#x106;" 
d="M484 168c0 -90 -86 -179 -202 -179c-130 0 -242 134 -242 317c0 182 112 316 241 316c51 0 97 -20 130 -48c13 25 13 27 15 31c5 7 10 17 28 17c30 0 30 -25 30 -41v-139c0 -20 0 -41 -35 -41c-30 0 -32 16 -35 33c-14 81 -69 127 -129 127c-89 0 -176 -106 -176 -255
c0 -150 86 -256 177 -256c41 0 122 24 129 122c2 29 25 29 34 29c11 0 35 0 35 -33zM396 772c0 -11 -4 -24 -28 -35l-133 -59c-6 -3 -11 -5 -18 -5c-26 0 -33 32 -33 40c0 18 11 23 25 29l133 60c11 5 19 5 19 5c20 0 35 -15 35 -35z" />
    <glyph glyph-name="cacute" unicode="&#x107;" 
d="M476 130c0 -80 -85 -138 -195 -138c-133 0 -234 112 -234 244c0 134 103 244 233 244c63 0 108 -24 125 -35c17 28 24 35 40 35c31 0 31 -26 31 -41v-95c0 -18 0 -41 -35 -41c-28 0 -32 16 -34 28c-15 68 -81 88 -124 88c-90 0 -167 -80 -167 -183
c0 -99 73 -183 169 -183c45 0 117 20 122 76c1 13 3 33 34 33c8 0 35 0 35 -32zM396 634c0 -11 -4 -24 -28 -35l-133 -59c-6 -3 -11 -5 -18 -5c-26 0 -33 32 -33 40c0 18 11 23 25 29l133 60c11 5 19 5 19 5c20 0 35 -15 35 -35z" />
    <glyph glyph-name="caron" unicode="&#x2c7;" 
d="M397 572l-118 -75c-9 -6 -21 -6 -30 0l-120 76c-34 21 -2 69 31 49l103 -62l103 62c33 20 64 -29 31 -50z" />
    <glyph glyph-name="uni030C" unicode="&#x30c;" horiz-adv-x="0" 
d="M-128 572l-118 -75c-9 -6 -21 -6 -30 0l-120 76c-34 21 -2 69 31 49l103 -62l103 62c33 20 64 -29 31 -50z" />
    <glyph glyph-name="Ccaron" unicode="&#x10c;" 
d="M484 168c0 -90 -86 -179 -202 -179c-130 0 -242 134 -242 317c0 182 112 316 241 316c51 0 97 -20 130 -48c13 25 13 27 15 31c5 7 10 17 28 17c30 0 30 -25 30 -41v-139c0 -20 0 -41 -35 -41c-30 0 -32 16 -35 33c-14 81 -69 127 -129 127c-89 0 -176 -106 -176 -255
c0 -150 86 -256 177 -256c41 0 122 24 129 122c2 29 25 29 34 29c11 0 35 0 35 -33zM417 708l-118 -43c-6 -2 -13 -2 -19 0l-118 43c-35 13 -17 67 19 56l109 -33l109 33c36 11 54 -43 18 -56z" />
    <glyph glyph-name="ccaron" unicode="&#x10d;" 
d="M476 130c0 -80 -85 -138 -195 -138c-133 0 -234 112 -234 244c0 134 103 244 233 244c63 0 108 -24 125 -35c17 28 24 35 40 35c31 0 31 -26 31 -41v-95c0 -18 0 -41 -35 -41c-28 0 -32 16 -34 28c-15 68 -81 88 -124 88c-90 0 -167 -80 -167 -183
c0 -99 73 -183 169 -183c45 0 117 20 122 76c1 13 3 33 34 33c8 0 35 0 35 -32zM424 614l-118 -75c-9 -6 -21 -6 -30 0l-120 76c-34 21 -2 69 31 49l103 -62l103 62c33 20 64 -29 31 -50z" />
    <glyph glyph-name="Ccedilla" unicode="&#xc7;" 
d="M484 168c0 -74 -57 -147 -142 -171v-6c71 -14 99 -58 99 -97c0 -102 -140 -102 -235 -102c-15 0 -31 8 -31 31c0 31 22 31 60 31s137 0 137 40c0 20 -23 38 -67 40c-32 2 -32 22 -32 42v13c-126 6 -233 138 -233 317c0 182 112 316 241 316c51 0 97 -20 130 -48
c13 25 13 27 15 31c5 7 10 17 28 17c30 0 30 -25 30 -41v-139c0 -20 0 -41 -35 -41c-30 0 -32 16 -35 33c-14 81 -69 127 -129 127c-89 0 -176 -106 -176 -255c0 -150 86 -256 177 -256c41 0 122 24 129 122c2 29 25 29 34 29c11 0 35 0 35 -33z" />
    <glyph glyph-name="ccedilla" unicode="&#xe7;" 
d="M476 130c0 -64 -55 -115 -134 -132v-7c71 -14 99 -58 99 -97c0 -102 -140 -102 -235 -102c-15 0 -31 8 -31 31c0 31 22 31 60 31s137 0 137 40c0 20 -23 38 -67 40c-32 2 -32 22 -32 42v16c-129 4 -226 115 -226 244c0 134 103 244 233 244c63 0 108 -24 125 -35
c17 28 24 35 40 35c31 0 31 -26 31 -41v-95c0 -18 0 -41 -35 -41c-28 0 -32 16 -34 28c-15 68 -81 88 -124 88c-90 0 -167 -80 -167 -183c0 -99 73 -183 169 -183c45 0 117 20 122 76c1 13 3 33 34 33c8 0 35 0 35 -32z" />
    <glyph glyph-name="Ccircumflex" unicode="&#x108;" 
d="M484 168c0 -90 -86 -179 -202 -179c-130 0 -242 134 -242 317c0 182 112 316 241 316c51 0 97 -20 130 -48c13 25 13 27 15 31c5 7 10 17 28 17c30 0 30 -25 30 -41v-139c0 -20 0 -41 -35 -41c-30 0 -32 16 -35 33c-14 81 -69 127 -129 127c-89 0 -176 -106 -176 -255
c0 -150 86 -256 177 -256c41 0 122 24 129 122c2 29 25 29 34 29c11 0 35 0 35 -33zM418 721c35 -13 17 -67 -19 -56l-109 33l-109 -33c-36 -11 -54 43 -18 56l118 43c6 2 13 2 19 0z" />
    <glyph glyph-name="ccircumflex" unicode="&#x109;" 
d="M476 130c0 -80 -85 -138 -195 -138c-133 0 -234 112 -234 244c0 134 103 244 233 244c63 0 108 -24 125 -35c17 28 24 35 40 35c31 0 31 -26 31 -41v-95c0 -18 0 -41 -35 -41c-28 0 -32 16 -34 28c-15 68 -81 88 -124 88c-90 0 -167 -80 -167 -183
c0 -99 73 -183 169 -183c45 0 117 20 122 76c1 13 3 33 34 33c8 0 35 0 35 -32zM424 589c34 -21 2 -69 -31 -49l-103 62l-103 -62c-33 -20 -64 29 -31 50l118 75c9 6 21 6 30 0z" />
    <glyph glyph-name="Cdotaccent" unicode="&#x10a;" 
d="M484 168c0 -90 -86 -179 -202 -179c-130 0 -242 134 -242 317c0 182 112 316 241 316c51 0 97 -20 130 -48c13 25 13 27 15 31c5 7 10 17 28 17c30 0 30 -25 30 -41v-139c0 -20 0 -41 -35 -41c-30 0 -32 16 -35 33c-14 81 -69 127 -129 127c-89 0 -176 -106 -176 -255
c0 -150 86 -256 177 -256c41 0 122 24 129 122c2 29 25 29 34 29c11 0 35 0 35 -33zM340 724c0 -28 -22 -50 -50 -50s-50 22 -50 50s22 50 50 50s50 -22 50 -50z" />
    <glyph glyph-name="cdotaccent" unicode="&#x10b;" 
d="M476 130c0 -80 -85 -138 -195 -138c-133 0 -234 112 -234 244c0 134 103 244 233 244c63 0 108 -24 125 -35c17 28 24 35 40 35c31 0 31 -26 31 -41v-95c0 -18 0 -41 -35 -41c-28 0 -32 16 -34 28c-15 68 -81 88 -124 88c-90 0 -167 -80 -167 -183
c0 -99 73 -183 169 -183c45 0 117 20 122 76c1 13 3 33 34 33c8 0 35 0 35 -32zM340 602c0 -28 -22 -50 -50 -50s-50 22 -50 50s22 50 50 50s50 -22 50 -50z" />
    <glyph glyph-name="cedilla" unicode="&#xb8;" 
d="M428 -106c0 -102 -140 -102 -235 -102c-15 0 -31 8 -31 31c0 31 22 31 60 31s137 0 137 40c0 20 -23 38 -67 40c-32 2 -32 22 -32 42v27c0 20 0 42 35 42c34 0 34 -17 34 -54c71 -14 99 -58 99 -97z" />
    <glyph glyph-name="cent" unicode="&#xa2;" 
d="M476 130c0 -70 -66 -124 -156 -136v-56c0 -17 -14 -31 -31 -31s-31 14 -31 31v55c-122 12 -211 119 -211 243c0 126 91 231 211 243v55c0 17 14 31 31 31s31 -14 31 -31v-57c42 -7 72 -23 85 -32c17 28 24 35 40 35c31 0 31 -26 31 -41v-95c0 -18 0 -41 -35 -41
c-28 0 -32 16 -34 28c-11 50 -50 74 -87 83v-358c40 8 83 30 87 73c1 13 3 33 34 33c8 0 35 0 35 -32zM258 55v362c-79 -13 -142 -88 -142 -181c0 -89 60 -167 142 -181z" />
    <glyph glyph-name="centigrade" unicode="&#x2103;" 
d="M493 172c0 -92 -62 -182 -155 -182c-21 0 -41 5 -59 15c-96 53 -124 196 -124 300c0 63 9 129 33 187c27 64 74 131 152 131h8c31 -5 55 -15 79 -35c5 17 15 35 36 35c20 0 30 -14 30 -37v-147c0 -18 -4 -38 -34 -38c-14 0 -28 3 -34 18c-12 34 -11 143 -83 143
c-21 0 -40 -13 -52 -29c-53 -63 -65 -154 -65 -233c0 -45 6 -91 20 -134c16 -47 46 -115 99 -115c58 0 76 82 79 115c0 30 15 37 35 37c18 0 35 -6 35 -31zM123 551c0 -29 -21 -62 -62 -62c-38 0 -59 35 -59 61s17 57 53 61c3 1 6 1 9 1c38 0 59 -35 59 -61zM69 551
c0 4 -2 6 -5 6c-4 0 -8 -3 -8 -7v-1c0 -3 2 -5 5 -5c4 0 8 3 8 7z" />
    <glyph glyph-name="Chi" unicode="&#x3a7;" 
d="M496 30c0 -30 -26 -30 -41 -30h-104c-15 0 -40 0 -40 30c0 31 22 31 45 31l-99 194l-92 -194c23 0 47 0 47 -31c0 -30 -26 -30 -41 -30h-104c-15 0 -40 0 -40 30c0 31 24 31 40 31h22l133 264l-120 225h-23c-15 0 -41 0 -41 31c0 30 26 30 41 30h104c15 0 40 0 40 -30
c0 -31 -23 -31 -43 -31l77 -146l71 146c-23 0 -46 0 -46 31c0 30 25 30 40 30h104c15 0 41 0 41 -31c0 -30 -26 -30 -41 -30h-22l-113 -224l141 -265h23c15 0 41 0 41 -31z" />
    <glyph glyph-name="circumflex" unicode="&#x2c6;" 
d="M397 547c34 -21 2 -69 -31 -49l-103 62l-103 -62c-33 -20 -64 29 -31 50l118 75c9 6 21 6 30 0z" />
    <glyph glyph-name="uni0302" unicode="&#x302;" horiz-adv-x="0" 
d="M-128 547c34 -21 2 -69 -31 -49l-103 62l-103 -62c-33 -20 -64 29 -31 50l118 75c9 6 21 6 30 0z" />
    <glyph glyph-name="colonmonetary" unicode="&#x20a1;" 
d="M484 168c0 -80 -68 -159 -164 -176v-54c0 -17 -14 -31 -31 -31s-31 14 -31 31v53c-120 15 -218 143 -218 315c0 171 99 300 218 315v52c0 17 14 31 31 31s31 -14 31 -31v-55c35 -7 67 -23 91 -44c13 25 13 27 15 31c5 7 10 17 28 17c30 0 30 -25 30 -41v-139
c0 -20 0 -41 -35 -41c-30 0 -32 16 -35 33c-11 65 -49 107 -94 122v-501c41 10 90 42 95 117c2 29 25 29 34 29c11 0 35 0 35 -33zM258 53v505c-79 -19 -149 -118 -149 -252s69 -233 149 -253z" />
    <glyph glyph-name="uni0326" unicode="&#x326;" horiz-adv-x="0" 
d="M-200 -108c0 -82 -77 -123 -101 -123c-12 0 -24 13 -24 24c0 15 14 19 21 21c9 3 45 15 56 62c-5 -2 -11 -3 -15 -3c-25 0 -47 19 -47 48c0 24 18 46 48 46c33 0 62 -29 62 -75z" />
    <glyph glyph-name="copyright" unicode="&#xa9;" 
d="M525 263c0 -145 -118 -263 -262 -263c-145 0 -263 118 -263 263c0 144 118 262 263 262c144 0 262 -118 262 -262zM487 263c0 123 -101 224 -224 224c-124 0 -225 -101 -225 -224c0 -124 101 -225 225 -225c123 0 224 101 224 225zM362 188c0 -48 -46 -96 -109 -96
c-70 0 -130 72 -130 171c0 98 60 170 130 170c27 0 52 -10 70 -26c7 14 7 15 8 17c3 4 5 9 15 9c16 0 16 -13 16 -22v-75c0 -11 0 -22 -19 -22c-16 0 -17 9 -18 18c-8 44 -38 68 -70 68c-48 0 -95 -57 -95 -137c0 -81 46 -138 95 -138c23 0 66 13 70 65c1 16 14 16 18 16
c6 0 19 0 19 -18z" />
    <glyph glyph-name="currency" unicode="&#xa4;" 
d="M421 147c-25 -25 -49 0 -58 8l-23 24c-23 -14 -49 -22 -77 -22c-29 0 -56 8 -78 22l-23 -23c-9 -8 -34 -33 -58 -8c-25 24 0 49 8 58l23 23c-13 22 -21 49 -21 77s8 55 21 77l-24 24c-8 9 -33 33 -8 58s49 0 58 -8l24 -24c22 14 49 22 78 22c28 0 54 -8 77 -22l22 23
c9 8 34 33 58 8c25 -24 0 -49 -8 -58l-23 -22c14 -23 22 -49 22 -78s-8 -55 -22 -78l24 -23c8 -9 33 -33 8 -58zM341 306c0 43 -35 79 -78 79c-44 0 -79 -36 -79 -79s35 -79 79 -79c43 0 78 36 78 79z" />
    <glyph glyph-name="dagger" unicode="&#x2020;" 
d="M457 430c0 -5 -2 -33 -44 -33c-24 0 -59 8 -81 14c-23 5 -46 9 -59 10c2 -27 6 -48 12 -71c16 -71 16 -78 16 -132c0 -96 -6 -199 -10 -262c-3 -51 -6 -104 -13 -154c-3 -13 -3 -18 -17 -18c-13 0 -14 6 -15 20c-11 95 -24 263 -24 414c0 53 0 61 17 133c6 25 9 45 11 70
c-23 -2 -53 -9 -56 -10c-25 -6 -59 -14 -84 -14c-37 0 -44 21 -44 34c0 5 3 33 44 33c25 0 59 -8 81 -14c23 -5 46 -9 59 -10c-1 29 -4 61 -13 107c-4 24 -15 82 -15 117c0 9 0 41 40 41c39 0 39 -33 39 -41c0 -37 -7 -74 -13 -111c-13 -65 -14 -93 -15 -113
c23 2 53 9 57 10c24 6 59 14 83 14c37 0 44 -21 44 -34z" />
    <glyph glyph-name="daggerdbl" unicode="&#x2021;" 
d="M457 477c0 -5 -2 -33 -44 -33c-24 0 -59 8 -81 14c-23 5 -46 9 -59 10c1 -26 7 -54 15 -95c8 -35 13 -64 13 -84c0 -14 -5 -39 -40 -39c-13 0 -39 4 -39 39c0 28 8 68 15 101c4 14 12 48 13 78c-23 -2 -53 -9 -56 -10c-25 -6 -59 -14 -84 -14c-37 0 -44 21 -44 34
c0 5 3 33 44 33c25 0 59 -8 81 -14c23 -5 46 -9 59 -10c-1 26 -7 54 -15 95c-8 35 -13 64 -13 84c0 36 27 39 39 39c40 0 40 -32 40 -39c0 -28 -8 -68 -15 -101c-4 -14 -12 -48 -13 -78c23 2 53 9 57 10c24 6 59 14 83 14c37 0 44 -21 44 -34zM457 22c0 -15 -12 -33 -40 -33
c-6 0 -27 0 -66 9c-47 11 -51 12 -78 14c2 -30 8 -61 12 -72c7 -34 16 -77 16 -106c0 -14 -5 -39 -40 -39c-13 0 -39 4 -39 39c0 5 0 28 13 84c8 42 13 66 15 94c-20 -2 -28 -3 -74 -13c-13 -4 -41 -10 -70 -10c-28 0 -40 18 -40 33c0 13 11 33 40 33c9 0 29 0 66 -9
c48 -11 51 -12 78 -14c-2 30 -8 61 -11 72c-7 34 -17 77 -17 106c0 14 5 39 40 39c13 0 39 -4 39 -39c0 -5 0 -28 -13 -84c-8 -42 -13 -66 -15 -94c26 2 34 4 65 12c36 8 57 11 80 11c25 0 39 -16 39 -33z" />
    <glyph glyph-name="dblbracketleft" unicode="&#x27e6;" 
d="M496 -47c0 -17 -4 -35 -32 -35h-280c-28 0 -39 11 -39 39v701c0 25 11 38 37 38c8 0 15 -1 22 -1h237c6 0 13 1 20 1c25 0 35 -15 35 -35c0 -19 -6 -37 -34 -37c-6 0 -12 1 -17 1h-68v-637h84c28 0 35 -16 35 -35zM307 -12v637h-92v-637h92z" />
    <glyph glyph-name="dblbracketright" unicode="&#x27e7;" 
d="M379 -47c0 -17 -6 -35 -32 -35h-286c-26 0 -32 18 -32 35c0 19 7 35 35 35h83v637h-83c-28 0 -35 16 -35 35c0 17 6 35 32 35h285c29 0 33 -19 33 -36v-706zM309 -12v637h-92v-637h92z" />
    <glyph glyph-name="uni030F" unicode="&#x30f;" horiz-adv-x="0" 
d="M-101 502c-13 -15 -35 -16 -50 -3l-77 70c-14 13 -16 35 -3 49c13 15 35 16 50 3l77 -70c14 -13 16 -35 3 -49zM-295 502c-13 -15 -35 -16 -50 -3l-77 70c-14 13 -16 35 -3 49c13 15 35 16 50 3l77 -70c14 -13 16 -35 3 -49z" />
    <glyph glyph-name="dblverticalbar" unicode="&#x2016;" 
d="M193 -36c0 -12 0 -47 -35 -47s-35 35 -35 47v683c0 12 0 47 35 47s35 -35 35 -47v-683zM403 -36c0 -12 0 -47 -35 -47s-35 35 -35 47v683c0 12 0 47 35 47s35 -35 35 -47v-683z" />
    <glyph glyph-name="Dcaron" unicode="&#x10e;" 
d="M485 301c0 -161 -88 -301 -219 -301h-206c-15 0 -41 0 -41 30c0 31 25 31 41 31h22v489h-22c-15 0 -41 0 -41 30c0 31 25 31 41 31h206c133 0 219 -150 219 -310zM416 301c0 116 -56 249 -169 249h-96v-489h96c111 0 169 123 169 240zM327 708l-118 -43
c-6 -2 -13 -2 -19 0l-118 43c-35 13 -17 67 19 56l109 -33l109 33c36 11 54 -43 18 -56z" />
    <glyph glyph-name="dcaron" unicode="&#x10f;" 
d="M477 233c0 -124 -85 -233 -211 -233h-185c-13 0 -42 0 -42 30c0 31 27 31 47 31v350c-20 0 -47 0 -47 31c0 30 29 30 42 30h185c130 0 211 -119 211 -239zM408 232c0 84 -54 179 -161 179h-92v-350h92c108 0 161 92 161 171zM336 614l-118 -75c-9 -6 -21 -6 -30 0
l-120 76c-34 21 -2 69 31 49l103 -62l103 62c33 20 64 -29 31 -50z" />
    <glyph glyph-name="Dcroat" unicode="&#x110;" 
d="M485 301c0 -161 -88 -301 -219 -301h-206c-15 0 -41 0 -41 30c0 31 25 31 41 31h22v214h-28c-17 0 -31 13 -31 31c0 17 14 31 31 31h28v213h-22c-15 0 -41 0 -41 30c0 31 25 31 41 31h206c133 0 219 -150 219 -310zM416 301c0 116 -56 249 -169 249h-96v-213h59
c17 0 31 -14 31 -31c0 -18 -14 -31 -31 -31h-59v-214h96c111 0 169 123 169 240z" />
    <glyph glyph-name="dcroat" unicode="&#x111;" 
d="M477 233c0 -124 -85 -233 -211 -233h-185c-13 0 -42 0 -42 30c0 31 27 31 47 31v140h-12c-19 0 -35 16 -35 35s16 35 35 35h12v140c-20 0 -47 0 -47 31c0 30 29 30 42 30h185c130 0 211 -119 211 -239zM408 232c0 84 -54 179 -161 179h-92v-140h55c19 0 35 -16 35 -35
s-16 -35 -35 -35h-55v-140h92c108 0 161 92 161 171z" />
    <glyph glyph-name="Ddotbelow" unicode="&#x1e0c;" 
d="M485 301c0 -161 -88 -301 -219 -301h-206c-15 0 -41 0 -41 30c0 31 25 31 41 31h22v489h-22c-15 0 -41 0 -41 30c0 31 25 31 41 31h206c133 0 219 -150 219 -310zM416 301c0 116 -56 249 -169 249h-96v-489h96c111 0 169 123 169 240zM250 -150c0 -28 -22 -50 -50 -50
s-50 22 -50 50s22 50 50 50s50 -22 50 -50z" />
    <glyph glyph-name="ddotbelow" unicode="&#x1e0d;" 
d="M477 233c0 -124 -85 -233 -211 -233h-185c-13 0 -42 0 -42 30c0 31 27 31 47 31v350c-20 0 -47 0 -47 31c0 30 29 30 42 30h185c130 0 211 -119 211 -239zM408 232c0 84 -54 179 -161 179h-92v-350h92c108 0 161 92 161 171zM252 -150c0 -28 -22 -50 -50 -50
s-50 22 -50 50s22 50 50 50s50 -22 50 -50z" />
    <glyph glyph-name="degree" unicode="&#xb0;" 
d="M408 465c0 -80 -65 -146 -145 -146c-81 0 -146 66 -146 146c0 81 65 146 146 146c80 0 145 -65 145 -146zM338 465c0 42 -34 76 -75 76c-42 0 -76 -34 -76 -76s34 -76 76 -76c41 0 75 34 75 76z" />
    <glyph glyph-name="Delta" unicode="&#x394;" 
d="M490 22c0 -22 -20 -22 -35 -22h-386c-15 0 -35 0 -35 22c0 0 0 3 5 18l168 550c10 33 32 33 55 33c33 0 45 -3 55 -36l168 -547c5 -14 5 -18 5 -18zM405 67l-115 378c-17 54 -24 82 -27 95h-1l-28 -95l-115 -378h286z" />
    <glyph glyph-name="diameter" unicode="&#x2300;" 
d="M486 496c0 -10 -4 -18 -10 -25l-40 -40c25 -35 40 -78 40 -125c0 -118 -96 -214 -214 -214c-46 0 -89 15 -124 40l-40 -41c-7 -6 -15 -10 -25 -10c-19 0 -35 16 -35 35c0 10 4 18 10 25l40 40c-25 35 -40 78 -40 125c0 118 96 214 214 214c46 0 89 -15 124 -40l40 41
c7 6 15 10 25 10c19 0 35 -16 35 -35zM406 306c0 27 -8 53 -21 74l-197 -198c22 -13 47 -20 74 -20c80 0 144 64 144 144zM336 430c-22 13 -47 20 -74 20c-80 0 -144 -64 -144 -144c0 -27 8 -53 21 -74z" />
    <glyph glyph-name="dieresis" unicode="&#xa8;" 
d="M225 560c0 -25 -20 -45 -45 -45c-26 0 -45 20 -45 45s19 45 45 45c25 0 45 -20 45 -45zM390 560c0 -25 -20 -45 -45 -45c-26 0 -45 20 -45 45s19 45 45 45c25 0 45 -20 45 -45z" />
    <glyph glyph-name="uni0308" unicode="&#x308;" horiz-adv-x="0" 
d="M-300 560c0 -25 -20 -45 -45 -45c-26 0 -45 20 -45 45s19 45 45 45c25 0 45 -20 45 -45zM-135 560c0 -25 -20 -45 -45 -45c-26 0 -45 20 -45 45s19 45 45 45c25 0 45 -20 45 -45z" />
    <glyph glyph-name="discount" unicode="&#x2052;" 
d="M466 656c-2 -12 -10 -24 -16 -35l-317 -586c-9 -16 -17 -33 -38 -34h-2c-20 0 -35 16 -35 35c0 16 11 30 18 43l36 66l224 414l54 99c8 16 16 33 35 36l6 1c19 0 35 -16 35 -36v-3zM235 609c0 34 -25 58 -64 58c-26 -6 -50 -25 -50 -56c0 -34 25 -58 64 -58
c26 6 50 25 50 56zM403 85c0 34 -25 58 -64 58c-26 -6 -50 -25 -50 -56c0 -34 25 -58 64 -58c26 6 50 25 50 56z" />
    <glyph glyph-name="divide" unicode="&#xf7;" 
d="M486 306c0 -35 -33 -35 -45 -35h-358c-12 0 -45 0 -45 35s37 35 51 35h346c14 0 51 0 51 -35zM324 517c0 -31 -25 -62 -63 -62c-32 0 -62 26 -62 63c0 31 25 62 63 62c32 0 62 -26 62 -63zM324 93c0 -31 -25 -62 -63 -62c-32 0 -62 26 -62 63c0 31 25 62 63 62
c32 0 62 -26 62 -63z" />
    <glyph glyph-name="divorced" unicode="&#x26ae;" 
d="M166 308c0 -99 -59 -203 -175 -217h-9c-117 0 -190 109 -190 215c0 100 61 204 173 216h9c119 0 192 -108 192 -214zM731 306c0 -98 -57 -201 -173 -215h-9c-116 0 -191 107 -191 214c0 101 62 204 175 217c5 1 10 1 15 1c113 0 183 -115 183 -217zM297 -24
c0 -20 0 -41 -37 -41c-18 0 -33 7 -33 35v666c0 14 1 41 22 41c4 1 9 2 14 2c22 0 34 -12 34 -37v-666zM98 305c0 70 -45 146 -114 151h-6c-70 0 -121 -77 -121 -147c0 -4 1 -9 1 -13c8 -69 46 -132 115 -139h5c72 0 120 79 120 148zM666 311c0 69 -50 145 -120 145h-6
c-75 -8 -113 -83 -113 -148c0 -69 43 -151 119 -151h5c77 6 108 83 114 138c1 5 1 11 1 16z" />
    <glyph glyph-name="Dlinebelow" unicode="&#x1e0e;" 
d="M485 301c0 -161 -88 -301 -219 -301h-206c-15 0 -41 0 -41 30c0 31 25 31 41 31h22v489h-22c-15 0 -41 0 -41 30c0 31 25 31 41 31h206c133 0 219 -150 219 -310zM416 301c0 116 -56 249 -169 249h-96v-489h96c111 0 169 123 169 240zM389 -150c0 -31 -24 -31 -40 -31
h-297c-17 0 -41 0 -41 32c0 31 24 31 40 31h298c17 0 40 0 40 -32z" />
    <glyph glyph-name="dlinebelow" unicode="&#x1e0f;" 
d="M477 233c0 -124 -85 -233 -211 -233h-185c-13 0 -42 0 -42 30c0 31 27 31 47 31v350c-20 0 -47 0 -47 31c0 30 29 30 42 30h185c130 0 211 -119 211 -239zM408 232c0 84 -54 179 -161 179h-92v-350h92c108 0 161 92 161 171zM391 -150c0 -31 -24 -31 -40 -31h-297
c-17 0 -41 0 -41 32c0 31 24 31 40 31h298c17 0 40 0 40 -32z" />
    <glyph glyph-name="dong" unicode="&#x20ab;" 
d="M453 245c0 -118 -81 -221 -200 -221h-176c-12 0 -40 0 -40 28c0 30 26 30 45 30v133h-12c-18 0 -33 15 -33 33s15 33 33 33h12v133c-19 0 -45 0 -45 30c0 28 28 28 40 28h176c123 0 200 -113 200 -227zM453 -31c0 -17 -14 -31 -31 -31h-354c-17 0 -31 14 -31 31
s14 31 31 31h354c17 0 31 -14 31 -31zM388 244c0 80 -52 170 -153 170h-88v-133h52c19 0 34 -15 34 -33s-15 -33 -34 -33h-52v-133h88c102 0 153 87 153 162z" />
    <glyph glyph-name="dotaccent" unicode="&#x2d9;" 
d="M313 560c0 -28 -22 -50 -50 -50s-50 22 -50 50s22 50 50 50s50 -22 50 -50z" />
    <glyph glyph-name="uni0307" unicode="&#x307;" horiz-adv-x="0" 
d="M-212 560c0 -28 -22 -50 -50 -50s-50 22 -50 50s22 50 50 50s50 -22 50 -50z" />
    <glyph glyph-name="uni0323" unicode="&#x323;" horiz-adv-x="0" 
d="M-212 -150c0 -28 -22 -50 -50 -50s-50 22 -50 50s22 50 50 50s50 -22 50 -50z" />
    <glyph glyph-name="dotlessi" unicode="&#x131;" 
d="M406 30c0 -30 -29 -30 -42 -30h-205c-13 0 -42 0 -42 30c0 31 28 31 42 31h68v350h-68c-13 0 -42 0 -42 30c0 31 28 31 42 31h205c14 0 42 0 42 -31c0 -30 -29 -30 -42 -30h-68v-350h68c14 0 42 0 42 -31z" />
    <glyph glyph-name="uni0237" unicode="&#x237;" 
d="M454 442c0 -31 -24 -31 -52 -31v-303c0 -85 -86 -116 -168 -116c-39 0 -154 0 -154 85c0 26 19 43 42 43c21 0 41 -16 41 -42c0 -7 -1 -11 -2 -15c25 -10 66 -10 74 -10c13 0 42 0 68 13c30 15 30 28 30 47v298h-49c-13 0 -42 0 -42 30c0 31 28 31 42 31h128
c14 0 42 0 42 -30z" />
    <glyph glyph-name="Eacute" unicode="&#xc9;" 
d="M502 41c0 -32 -7 -41 -40 -41h-395c-15 0 -41 0 -41 30c0 31 25 31 41 31h30v489h-30c-15 0 -41 0 -41 31c0 30 26 30 41 30h373c34 0 40 -10 40 -41v-73c0 -20 0 -41 -35 -41c-34 0 -34 22 -34 41v53h-245v-203h131c0 41 0 57 35 57c34 0 34 -22 34 -41v-93
c0 -19 0 -41 -34 -41c-35 0 -35 16 -35 57h-131v-225h267v69c0 20 0 41 35 41c34 0 34 -22 34 -41v-89zM369 772c0 -11 -4 -24 -28 -35l-133 -59c-6 -3 -11 -5 -18 -5c-26 0 -33 32 -33 40c0 18 11 23 25 29l133 60c11 5 19 5 19 5c20 0 35 -15 35 -35z" />
    <glyph glyph-name="eacute" unicode="&#xe9;" 
d="M494 42c0 -34 -9 -42 -42 -42h-361c-14 0 -42 0 -42 30c0 31 24 31 52 31v350c-28 0 -52 0 -52 31c0 30 28 30 42 30h340c34 0 42 -9 42 -42v-49c0 -18 0 -42 -35 -42c-34 0 -34 25 -34 42v30h-234v-136h124c0 19 0 43 35 43c34 0 34 -25 34 -42v-63c0 -17 0 -42 -34 -42
c-35 0 -35 24 -35 43h-124v-153h255v42c0 18 0 42 35 42c34 0 34 -25 34 -42v-61zM369 634c0 -11 -4 -24 -28 -35l-133 -59c-6 -3 -11 -5 -18 -5c-26 0 -33 32 -33 40c0 18 11 23 25 29l133 60c11 5 19 5 19 5c20 0 35 -15 35 -35z" />
    <glyph glyph-name="Ebreve" unicode="&#x114;" 
d="M502 41c0 -32 -7 -41 -40 -41h-395c-15 0 -41 0 -41 30c0 31 25 31 41 31h30v489h-30c-15 0 -41 0 -41 31c0 30 26 30 41 30h373c34 0 40 -10 40 -41v-73c0 -20 0 -41 -35 -41c-34 0 -34 22 -34 41v53h-245v-203h131c0 41 0 57 35 57c34 0 34 -22 34 -41v-93
c0 -19 0 -41 -34 -41c-35 0 -35 16 -35 57h-131v-225h267v69c0 20 0 41 35 41c34 0 34 -22 34 -41v-89zM439 755c0 -82 -110 -82 -176 -82s-176 0 -176 82c0 19 12 31 31 31c24 0 28 -17 30 -29c5 -20 72 -20 115 -20c42 0 110 0 115 20c2 12 6 29 30 29c20 0 31 -12 31 -31
z" />
    <glyph glyph-name="ebreve" unicode="&#x115;" 
d="M494 42c0 -34 -9 -42 -42 -42h-361c-14 0 -42 0 -42 30c0 31 24 31 52 31v350c-28 0 -52 0 -52 31c0 30 28 30 42 30h340c34 0 42 -9 42 -42v-49c0 -18 0 -42 -35 -42c-34 0 -34 25 -34 42v30h-234v-136h124c0 19 0 43 35 43c34 0 34 -25 34 -42v-63c0 -17 0 -42 -34 -42
c-35 0 -35 24 -35 43h-124v-153h255v42c0 18 0 42 35 42c34 0 34 -25 34 -42v-61zM439 628c0 -82 -110 -82 -176 -82s-176 0 -176 82c0 19 12 31 31 31c24 0 28 -17 30 -29c5 -20 72 -20 115 -20c42 0 110 0 115 20c2 12 6 29 30 29c20 0 31 -12 31 -31z" />
    <glyph glyph-name="Ecaron" unicode="&#x11a;" 
d="M502 41c0 -32 -7 -41 -40 -41h-395c-15 0 -41 0 -41 30c0 31 25 31 41 31h30v489h-30c-15 0 -41 0 -41 31c0 30 26 30 41 30h373c34 0 40 -10 40 -41v-73c0 -20 0 -41 -35 -41c-34 0 -34 22 -34 41v53h-245v-203h131c0 41 0 57 35 57c34 0 34 -22 34 -41v-93
c0 -19 0 -41 -34 -41c-35 0 -35 16 -35 57h-131v-225h267v69c0 20 0 41 35 41c34 0 34 -22 34 -41v-89zM390 708l-118 -43c-6 -2 -13 -2 -19 0l-118 43c-35 13 -17 67 19 56l109 -33l109 33c36 11 54 -43 18 -56z" />
    <glyph glyph-name="ecaron" unicode="&#x11b;" 
d="M494 42c0 -34 -9 -42 -42 -42h-361c-14 0 -42 0 -42 30c0 31 24 31 52 31v350c-28 0 -52 0 -52 31c0 30 28 30 42 30h340c34 0 42 -9 42 -42v-49c0 -18 0 -42 -35 -42c-34 0 -34 25 -34 42v30h-234v-136h124c0 19 0 43 35 43c34 0 34 -25 34 -42v-63c0 -17 0 -42 -34 -42
c-35 0 -35 24 -35 43h-124v-153h255v42c0 18 0 42 35 42c34 0 34 -25 34 -42v-61zM397 614l-118 -75c-9 -6 -21 -6 -30 0l-120 76c-34 21 -2 69 31 49l103 -62l103 62c33 20 64 -29 31 -50z" />
    <glyph glyph-name="Ecircumflex" unicode="&#xca;" 
d="M502 41c0 -32 -7 -41 -40 -41h-395c-15 0 -41 0 -41 30c0 31 25 31 41 31h30v489h-30c-15 0 -41 0 -41 31c0 30 26 30 41 30h373c34 0 40 -10 40 -41v-73c0 -20 0 -41 -35 -41c-34 0 -34 22 -34 41v53h-245v-203h131c0 41 0 57 35 57c34 0 34 -22 34 -41v-93
c0 -19 0 -41 -34 -41c-35 0 -35 16 -35 57h-131v-225h267v69c0 20 0 41 35 41c34 0 34 -22 34 -41v-89zM391 721c35 -13 17 -67 -19 -56l-109 33l-109 -33c-36 -11 -54 43 -18 56l118 43c6 2 13 2 19 0z" />
    <glyph glyph-name="ecircumflex" unicode="&#xea;" 
d="M494 42c0 -34 -9 -42 -42 -42h-361c-14 0 -42 0 -42 30c0 31 24 31 52 31v350c-28 0 -52 0 -52 31c0 30 28 30 42 30h340c34 0 42 -9 42 -42v-49c0 -18 0 -42 -35 -42c-34 0 -34 25 -34 42v30h-234v-136h124c0 19 0 43 35 43c34 0 34 -25 34 -42v-63c0 -17 0 -42 -34 -42
c-35 0 -35 24 -35 43h-124v-153h255v42c0 18 0 42 35 42c34 0 34 -25 34 -42v-61zM397 589c34 -21 2 -69 -31 -49l-103 62l-103 -62c-33 -20 -64 29 -31 50l118 75c9 6 21 6 30 0z" />
    <glyph glyph-name="Ecircumflexacute" unicode="&#x1ebe;" 
d="M502 41c0 -32 -7 -41 -40 -41h-395c-15 0 -41 0 -41 30c0 31 25 31 41 31h30v489h-30c-15 0 -41 0 -41 31c0 30 26 30 41 30h373c34 0 40 -10 40 -41v-73c0 -20 0 -41 -35 -41c-34 0 -34 22 -34 41v53h-245v-203h131c0 41 0 57 35 57c34 0 34 -22 34 -41v-93
c0 -19 0 -41 -34 -41c-35 0 -35 16 -35 57h-131v-225h267v69c0 20 0 41 35 41c34 0 34 -22 34 -41v-89zM391 721c35 -13 17 -67 -19 -56l-109 33l-109 -33c-36 -11 -54 43 -18 56l118 43c6 2 13 2 19 0zM369 884c0 -11 -4 -24 -28 -35l-133 -59c-6 -3 -11 -5 -18 -5
c-26 0 -33 32 -33 40c0 18 11 23 25 29l133 60c11 5 19 5 19 5c20 0 35 -15 35 -35z" />
    <glyph glyph-name="ecircumflexacute" unicode="&#x1ebf;" 
d="M494 42c0 -34 -9 -42 -42 -42h-361c-14 0 -42 0 -42 30c0 31 24 31 52 31v350c-28 0 -52 0 -52 31c0 30 28 30 42 30h340c34 0 42 -9 42 -42v-49c0 -18 0 -42 -35 -42c-34 0 -34 25 -34 42v30h-234v-136h124c0 19 0 43 35 43c34 0 34 -25 34 -42v-63c0 -17 0 -42 -34 -42
c-35 0 -35 24 -35 43h-124v-153h255v42c0 18 0 42 35 42c34 0 34 -25 34 -42v-61zM391 592c35 -13 17 -67 -19 -56l-109 33l-109 -33c-36 -11 -54 43 -18 56l118 43c6 2 13 2 19 0zM369 755c0 -11 -4 -24 -28 -35l-133 -59c-6 -3 -11 -5 -18 -5c-26 0 -33 32 -33 40
c0 18 11 23 25 29l133 60c11 5 19 5 19 5c20 0 35 -15 35 -35z" />
    <glyph glyph-name="Ecircumflexdotbelow" unicode="&#x1ec6;" 
d="M502 41c0 -32 -7 -41 -40 -41h-395c-15 0 -41 0 -41 30c0 31 25 31 41 31h30v489h-30c-15 0 -41 0 -41 31c0 30 26 30 41 30h373c34 0 40 -10 40 -41v-73c0 -20 0 -41 -35 -41c-34 0 -34 22 -34 41v53h-245v-203h131c0 41 0 57 35 57c34 0 34 -22 34 -41v-93
c0 -19 0 -41 -34 -41c-35 0 -35 16 -35 57h-131v-225h267v69c0 20 0 41 35 41c34 0 34 -22 34 -41v-89zM391 721c35 -13 17 -67 -19 -56l-109 33l-109 -33c-36 -11 -54 43 -18 56l118 43c6 2 13 2 19 0zM313 -150c0 -28 -22 -50 -50 -50s-50 22 -50 50s22 50 50 50
s50 -22 50 -50z" />
    <glyph glyph-name="ecircumflexdotbelow" unicode="&#x1ec7;" 
d="M494 42c0 -34 -9 -42 -42 -42h-361c-14 0 -42 0 -42 30c0 31 24 31 52 31v350c-28 0 -52 0 -52 31c0 30 28 30 42 30h340c34 0 42 -9 42 -42v-49c0 -18 0 -42 -35 -42c-34 0 -34 25 -34 42v30h-234v-136h124c0 19 0 43 35 43c34 0 34 -25 34 -42v-63c0 -17 0 -42 -34 -42
c-35 0 -35 24 -35 43h-124v-153h255v42c0 18 0 42 35 42c34 0 34 -25 34 -42v-61zM397 589c34 -21 2 -69 -31 -49l-103 62l-103 -62c-33 -20 -64 29 -31 50l118 75c9 6 21 6 30 0zM313 -150c0 -28 -22 -50 -50 -50s-50 22 -50 50s22 50 50 50s50 -22 50 -50z" />
    <glyph glyph-name="Ecircumflexgrave" unicode="&#x1ec0;" 
d="M502 41c0 -32 -7 -41 -40 -41h-395c-15 0 -41 0 -41 30c0 31 25 31 41 31h30v489h-30c-15 0 -41 0 -41 31c0 30 26 30 41 30h373c34 0 40 -10 40 -41v-73c0 -20 0 -41 -35 -41c-34 0 -34 22 -34 41v53h-245v-203h131c0 41 0 57 35 57c34 0 34 -22 34 -41v-93
c0 -19 0 -41 -34 -41c-35 0 -35 16 -35 57h-131v-225h267v69c0 20 0 41 35 41c34 0 34 -22 34 -41v-89zM391 721c35 -13 17 -67 -19 -56l-109 33l-109 -33c-36 -11 -54 43 -18 56l118 43c6 2 13 2 19 0zM369 825c0 18 -11 23 -25 29l-133 60c-11 5 -19 5 -19 5
c-20 0 -35 -15 -35 -35c0 -11 4 -24 28 -35l133 -59c6 -3 11 -5 18 -5c26 0 33 32 33 40z" />
    <glyph glyph-name="ecircumflexgrave" unicode="&#x1ec1;" 
d="M494 42c0 -34 -9 -42 -42 -42h-361c-14 0 -42 0 -42 30c0 31 24 31 52 31v350c-28 0 -52 0 -52 31c0 30 28 30 42 30h340c34 0 42 -9 42 -42v-49c0 -18 0 -42 -35 -42c-34 0 -34 25 -34 42v30h-234v-136h124c0 19 0 43 35 43c34 0 34 -25 34 -42v-63c0 -17 0 -42 -34 -42
c-35 0 -35 24 -35 43h-124v-153h255v42c0 18 0 42 35 42c34 0 34 -25 34 -42v-61zM391 592c35 -13 17 -67 -19 -56l-109 33l-109 -33c-36 -11 -54 43 -18 56l118 43c6 2 13 2 19 0zM369 696c0 18 -11 23 -25 29l-133 60c-11 5 -19 5 -19 5c-20 0 -35 -15 -35 -35
c0 -11 4 -24 28 -35l133 -59c6 -3 11 -5 18 -5c26 0 33 32 33 40z" />
    <glyph glyph-name="Ecircumflexhookabove" unicode="&#x1ec2;" 
d="M502 41c0 -32 -7 -41 -40 -41h-395c-15 0 -41 0 -41 30c0 31 25 31 41 31h30v489h-30c-15 0 -41 0 -41 31c0 30 26 30 41 30h373c34 0 40 -10 40 -41v-73c0 -20 0 -41 -35 -41c-34 0 -34 22 -34 41v53h-245v-203h131c0 41 0 57 35 57c34 0 34 -22 34 -41v-93
c0 -19 0 -41 -34 -41c-35 0 -35 16 -35 57h-131v-225h267v69c0 20 0 41 35 41c34 0 34 -22 34 -41v-89zM391 721c35 -13 17 -67 -19 -56l-109 33l-109 -33c-36 -11 -54 43 -18 56l118 43c6 2 13 2 19 0zM467 892c0 -25 -18 -43 -38 -52c-31 -14 -42 -23 -42 -32v-14
c0 -16 -13 -29 -29 -29s-29 13 -29 29v14c0 45 35 67 77 86l2 1s-2 2 -4 3c-11 6 -25 8 -46 8c-25 0 -36 -9 -36 -13c0 -16 -13 -29 -29 -29c-17 0 -30 13 -30 29c0 50 49 71 95 71c27 0 51 -3 73 -14c21 -11 36 -33 36 -58z" />
    <glyph glyph-name="ecircumflexhookabove" unicode="&#x1ec3;" 
d="M494 42c0 -34 -9 -42 -42 -42h-361c-14 0 -42 0 -42 30c0 31 24 31 52 31v350c-28 0 -52 0 -52 31c0 30 28 30 42 30h340c34 0 42 -9 42 -42v-49c0 -18 0 -42 -35 -42c-34 0 -34 25 -34 42v30h-234v-136h124c0 19 0 43 35 43c34 0 34 -25 34 -42v-63c0 -17 0 -42 -34 -42
c-35 0 -35 24 -35 43h-124v-153h255v42c0 18 0 42 35 42c34 0 34 -25 34 -42v-61zM391 592c35 -13 17 -67 -19 -56l-109 33l-109 -33c-36 -11 -54 43 -18 56l118 43c6 2 13 2 19 0zM467 763c0 -25 -18 -43 -38 -52c-31 -14 -42 -23 -42 -32v-14c0 -16 -13 -29 -29 -29
s-29 13 -29 29v14c0 45 35 67 77 86l2 1s-2 2 -4 3c-11 6 -25 8 -46 8c-25 0 -36 -9 -36 -13c0 -16 -13 -29 -29 -29c-17 0 -30 13 -30 29c0 50 49 71 95 71c27 0 51 -3 73 -14c21 -11 36 -33 36 -58z" />
    <glyph glyph-name="Ecircumflextilde" unicode="&#x1ec4;" 
d="M502 41c0 -32 -7 -41 -40 -41h-395c-15 0 -41 0 -41 30c0 31 25 31 41 31h30v489h-30c-15 0 -41 0 -41 31c0 30 26 30 41 30h373c34 0 40 -10 40 -41v-73c0 -20 0 -41 -35 -41c-34 0 -34 22 -34 41v53h-245v-203h131c0 41 0 57 35 57c34 0 34 -22 34 -41v-93
c0 -19 0 -41 -34 -41c-35 0 -35 16 -35 57h-131v-225h267v69c0 20 0 41 35 41c34 0 34 -22 34 -41v-89zM391 721c35 -13 17 -67 -19 -56l-109 33l-109 -33c-36 -11 -54 43 -18 56l118 43c6 2 13 2 19 0zM438 893c0 -18 -29 -40 -49 -55c-23 -17 -51 -33 -78 -33
c-34 0 -54 21 -67 34c-13 12 -21 21 -31 21c-14 0 -40 -16 -70 -44c-7 -6 -13 -11 -24 -11c-16 0 -31 16 -31 32c0 18 29 40 49 55c23 17 51 33 78 33c34 0 54 -21 67 -34c13 -12 21 -21 31 -21c14 0 40 16 70 44c7 6 13 11 24 11c16 0 31 -16 31 -32z" />
    <glyph glyph-name="ecircumflextilde" unicode="&#x1ec5;" 
d="M494 42c0 -34 -9 -42 -42 -42h-361c-14 0 -42 0 -42 30c0 31 24 31 52 31v350c-28 0 -52 0 -52 31c0 30 28 30 42 30h340c34 0 42 -9 42 -42v-49c0 -18 0 -42 -35 -42c-34 0 -34 25 -34 42v30h-234v-136h124c0 19 0 43 35 43c34 0 34 -25 34 -42v-63c0 -17 0 -42 -34 -42
c-35 0 -35 24 -35 43h-124v-153h255v42c0 18 0 42 35 42c34 0 34 -25 34 -42v-61zM391 592c35 -13 17 -67 -19 -56l-109 33l-109 -33c-36 -11 -54 43 -18 56l118 43c6 2 13 2 19 0zM438 764c0 -18 -29 -40 -49 -55c-23 -17 -51 -33 -78 -33c-34 0 -54 21 -67 34
c-13 12 -21 21 -31 21c-14 0 -40 -16 -70 -44c-7 -6 -13 -11 -24 -11c-16 0 -31 16 -31 32c0 18 29 40 49 55c23 17 51 33 78 33c34 0 54 -21 67 -34c13 -12 21 -21 31 -21c14 0 40 16 70 44c7 6 13 11 24 11c16 0 31 -16 31 -32z" />
    <glyph glyph-name="Edblgrave" unicode="&#x204;" 
d="M502 41c0 -32 -7 -41 -40 -41h-395c-15 0 -41 0 -41 30c0 31 25 31 41 31h30v489h-30c-15 0 -41 0 -41 31c0 30 26 30 41 30h373c34 0 40 -10 40 -41v-73c0 -20 0 -41 -35 -41c-34 0 -34 22 -34 41v53h-245v-203h131c0 41 0 57 35 57c34 0 34 -22 34 -41v-93
c0 -19 0 -41 -34 -41c-35 0 -35 16 -35 57h-131v-225h267v69c0 20 0 41 35 41c34 0 34 -22 34 -41v-89zM424 685c-13 -15 -35 -16 -50 -3l-77 70c-14 13 -16 35 -3 49c13 15 35 16 50 3l77 -70c14 -13 16 -35 3 -49zM230 685c-13 -15 -35 -16 -50 -3l-77 70
c-14 13 -16 35 -3 49c13 15 35 16 50 3l77 -70c14 -13 16 -35 3 -49z" />
    <glyph glyph-name="edblgrave" unicode="&#x205;" 
d="M494 42c0 -34 -9 -42 -42 -42h-361c-14 0 -42 0 -42 30c0 31 24 31 52 31v350c-28 0 -52 0 -52 31c0 30 28 30 42 30h340c34 0 42 -9 42 -42v-49c0 -18 0 -42 -35 -42c-34 0 -34 25 -34 42v30h-234v-136h124c0 19 0 43 35 43c34 0 34 -25 34 -42v-63c0 -17 0 -42 -34 -42
c-35 0 -35 24 -35 43h-124v-153h255v42c0 18 0 42 35 42c34 0 34 -25 34 -42v-61zM424 544c-13 -15 -35 -16 -50 -3l-77 70c-14 13 -16 35 -3 49c13 15 35 16 50 3l77 -70c14 -13 16 -35 3 -49zM230 544c-13 -15 -35 -16 -50 -3l-77 70c-14 13 -16 35 -3 49
c13 15 35 16 50 3l77 -70c14 -13 16 -35 3 -49z" />
    <glyph glyph-name="Edieresis" unicode="&#xcb;" 
d="M502 41c0 -32 -7 -41 -40 -41h-395c-15 0 -41 0 -41 30c0 31 25 31 41 31h30v489h-30c-15 0 -41 0 -41 31c0 30 26 30 41 30h373c34 0 40 -10 40 -41v-73c0 -20 0 -41 -35 -41c-34 0 -34 22 -34 41v53h-245v-203h131c0 41 0 57 35 57c34 0 34 -22 34 -41v-93
c0 -19 0 -41 -34 -41c-35 0 -35 16 -35 57h-131v-225h267v69c0 20 0 41 35 41c34 0 34 -22 34 -41v-89zM210 708c0 -25 -20 -45 -45 -45c-26 0 -45 20 -45 45s19 45 45 45c25 0 45 -20 45 -45zM405 708c0 -25 -20 -45 -45 -45c-26 0 -45 20 -45 45s19 45 45 45
c25 0 45 -20 45 -45z" />
    <glyph glyph-name="edieresis" unicode="&#xeb;" 
d="M494 42c0 -34 -9 -42 -42 -42h-361c-14 0 -42 0 -42 30c0 31 24 31 52 31v350c-28 0 -52 0 -52 31c0 30 28 30 42 30h340c34 0 42 -9 42 -42v-49c0 -18 0 -42 -35 -42c-34 0 -34 25 -34 42v30h-234v-136h124c0 19 0 43 35 43c34 0 34 -25 34 -42v-63c0 -17 0 -42 -34 -42
c-35 0 -35 24 -35 43h-124v-153h255v42c0 18 0 42 35 42c34 0 34 -25 34 -42v-61zM225 602c0 -25 -20 -45 -45 -45c-26 0 -45 20 -45 45s19 45 45 45c25 0 45 -20 45 -45zM390 602c0 -25 -20 -45 -45 -45c-26 0 -45 20 -45 45s19 45 45 45c25 0 45 -20 45 -45z" />
    <glyph glyph-name="Edotaccent" unicode="&#x116;" 
d="M502 41c0 -32 -7 -41 -40 -41h-395c-15 0 -41 0 -41 30c0 31 25 31 41 31h30v489h-30c-15 0 -41 0 -41 31c0 30 26 30 41 30h373c34 0 40 -10 40 -41v-73c0 -20 0 -41 -35 -41c-34 0 -34 22 -34 41v53h-245v-203h131c0 41 0 57 35 57c34 0 34 -22 34 -41v-93
c0 -19 0 -41 -34 -41c-35 0 -35 16 -35 57h-131v-225h267v69c0 20 0 41 35 41c34 0 34 -22 34 -41v-89zM313 724c0 -28 -22 -50 -50 -50s-50 22 -50 50s22 50 50 50s50 -22 50 -50z" />
    <glyph glyph-name="edotaccent" unicode="&#x117;" 
d="M494 42c0 -34 -9 -42 -42 -42h-361c-14 0 -42 0 -42 30c0 31 24 31 52 31v350c-28 0 -52 0 -52 31c0 30 28 30 42 30h340c34 0 42 -9 42 -42v-49c0 -18 0 -42 -35 -42c-34 0 -34 25 -34 42v30h-234v-136h124c0 19 0 43 35 43c34 0 34 -25 34 -42v-63c0 -17 0 -42 -34 -42
c-35 0 -35 24 -35 43h-124v-153h255v42c0 18 0 42 35 42c34 0 34 -25 34 -42v-61zM313 602c0 -28 -22 -50 -50 -50s-50 22 -50 50s22 50 50 50s50 -22 50 -50z" />
    <glyph glyph-name="Edotbelow" unicode="&#x1eb8;" 
d="M502 41c0 -32 -7 -41 -40 -41h-395c-15 0 -41 0 -41 30c0 31 25 31 41 31h30v489h-30c-15 0 -41 0 -41 31c0 30 26 30 41 30h373c34 0 40 -10 40 -41v-73c0 -20 0 -41 -35 -41c-34 0 -34 22 -34 41v53h-245v-203h131c0 41 0 57 35 57c34 0 34 -22 34 -41v-93
c0 -19 0 -41 -34 -41c-35 0 -35 16 -35 57h-131v-225h267v69c0 20 0 41 35 41c34 0 34 -22 34 -41v-89zM313 -150c0 -28 -22 -50 -50 -50s-50 22 -50 50s22 50 50 50s50 -22 50 -50z" />
    <glyph glyph-name="edotbelow" unicode="&#x1eb9;" 
d="M494 42c0 -34 -9 -42 -42 -42h-361c-14 0 -42 0 -42 30c0 31 24 31 52 31v350c-28 0 -52 0 -52 31c0 30 28 30 42 30h340c34 0 42 -9 42 -42v-49c0 -18 0 -42 -35 -42c-34 0 -34 25 -34 42v30h-234v-136h124c0 19 0 43 35 43c34 0 34 -25 34 -42v-63c0 -17 0 -42 -34 -42
c-35 0 -35 24 -35 43h-124v-153h255v42c0 18 0 42 35 42c34 0 34 -25 34 -42v-61zM313 -150c0 -28 -22 -50 -50 -50s-50 22 -50 50s22 50 50 50s50 -22 50 -50z" />
    <glyph glyph-name="Egrave" unicode="&#xc8;" 
d="M502 41c0 -32 -7 -41 -40 -41h-395c-15 0 -41 0 -41 30c0 31 25 31 41 31h30v489h-30c-15 0 -41 0 -41 31c0 30 26 30 41 30h373c34 0 40 -10 40 -41v-73c0 -20 0 -41 -35 -41c-34 0 -34 22 -34 41v53h-245v-203h131c0 41 0 57 35 57c34 0 34 -22 34 -41v-93
c0 -19 0 -41 -34 -41c-35 0 -35 16 -35 57h-131v-225h267v69c0 20 0 41 35 41c34 0 34 -22 34 -41v-89zM368 713c0 -8 -7 -40 -33 -40c-7 0 -12 2 -18 5l-133 59c-24 11 -28 24 -28 35c0 20 15 35 35 35c0 0 8 0 19 -5l133 -60c14 -6 25 -11 25 -29z" />
    <glyph glyph-name="egrave" unicode="&#xe8;" 
d="M494 42c0 -34 -9 -42 -42 -42h-361c-14 0 -42 0 -42 30c0 31 24 31 52 31v350c-28 0 -52 0 -52 31c0 30 28 30 42 30h340c34 0 42 -9 42 -42v-49c0 -18 0 -42 -35 -42c-34 0 -34 25 -34 42v30h-234v-136h124c0 19 0 43 35 43c34 0 34 -25 34 -42v-63c0 -17 0 -42 -34 -42
c-35 0 -35 24 -35 43h-124v-153h255v42c0 18 0 42 35 42c34 0 34 -25 34 -42v-61zM368 575c0 -8 -7 -40 -33 -40c-7 0 -12 2 -18 5l-133 59c-24 11 -28 24 -28 35c0 20 15 35 35 35c0 0 8 0 19 -5l133 -60c14 -6 25 -11 25 -29z" />
    <glyph glyph-name="Ehookabove" unicode="&#x1eba;" 
d="M502 41c0 -32 -7 -41 -40 -41h-395c-15 0 -41 0 -41 30c0 31 25 31 41 31h30v489h-30c-15 0 -41 0 -41 31c0 30 26 30 41 30h373c34 0 40 -10 40 -41v-73c0 -20 0 -41 -35 -41c-34 0 -34 22 -34 41v53h-245v-203h131c0 41 0 57 35 57c34 0 34 -22 34 -41v-93
c0 -19 0 -41 -34 -41c-35 0 -35 16 -35 57h-131v-225h267v69c0 20 0 41 35 41c34 0 34 -22 34 -41v-89zM365 801c0 -25 -18 -43 -38 -52c-31 -14 -42 -23 -42 -32v-14c0 -16 -13 -29 -29 -29s-29 13 -29 29v14c0 45 35 67 77 86l2 1s-2 2 -4 3c-11 6 -25 8 -46 8
c-25 0 -36 -9 -36 -13c0 -16 -13 -29 -29 -29c-17 0 -30 13 -30 29c0 50 49 71 95 71c27 0 51 -3 73 -14c21 -11 36 -33 36 -58z" />
    <glyph glyph-name="ehookabove" unicode="&#x1ebb;" 
d="M494 42c0 -34 -9 -42 -42 -42h-361c-14 0 -42 0 -42 30c0 31 24 31 52 31v350c-28 0 -52 0 -52 31c0 30 28 30 42 30h340c34 0 42 -9 42 -42v-49c0 -18 0 -42 -35 -42c-34 0 -34 25 -34 42v30h-234v-136h124c0 19 0 43 35 43c34 0 34 -25 34 -42v-63c0 -17 0 -42 -34 -42
c-35 0 -35 24 -35 43h-124v-153h255v42c0 18 0 42 35 42c34 0 34 -25 34 -42v-61zM365 630c0 -25 -18 -43 -38 -52c-31 -14 -42 -23 -42 -32v-14c0 -16 -13 -29 -29 -29s-29 13 -29 29v14c0 45 35 67 77 86l2 1s-2 2 -4 3c-11 6 -25 8 -46 8c-25 0 -36 -9 -36 -13
c0 -16 -13 -29 -29 -29c-17 0 -30 13 -30 29c0 50 49 71 95 71c27 0 51 -3 73 -14c21 -11 36 -33 36 -58z" />
    <glyph glyph-name="ellipsis" unicode="&#x2026;" 
d="M150 62c0 -31 -25 -62 -63 -62c-32 0 -62 26 -62 63c0 31 25 62 63 62c32 0 62 -26 62 -63zM325 62c0 -31 -25 -62 -63 -62c-32 0 -62 26 -62 63c0 31 25 62 63 62c32 0 62 -26 62 -63zM500 62c0 -31 -25 -62 -63 -62c-32 0 -62 26 -62 63c0 31 25 62 63 62
c32 0 62 -26 62 -63z" />
    <glyph glyph-name="Emacron" unicode="&#x112;" 
d="M502 41c0 -32 -7 -41 -40 -41h-395c-15 0 -41 0 -41 30c0 31 25 31 41 31h30v489h-30c-15 0 -41 0 -41 31c0 30 26 30 41 30h373c34 0 40 -10 40 -41v-73c0 -20 0 -41 -35 -41c-34 0 -34 22 -34 41v53h-245v-203h131c0 41 0 57 35 57c34 0 34 -22 34 -41v-93
c0 -19 0 -41 -34 -41c-35 0 -35 16 -35 57h-131v-225h267v69c0 20 0 41 35 41c34 0 34 -22 34 -41v-89zM452 714c0 -31 -24 -31 -40 -31h-297c-17 0 -41 0 -41 32c0 31 24 31 40 31h298c17 0 40 0 40 -32z" />
    <glyph glyph-name="emacron" unicode="&#x113;" 
d="M494 42c0 -34 -9 -42 -42 -42h-361c-14 0 -42 0 -42 30c0 31 24 31 52 31v350c-28 0 -52 0 -52 31c0 30 28 30 42 30h340c34 0 42 -9 42 -42v-49c0 -18 0 -42 -35 -42c-34 0 -34 25 -34 42v30h-234v-136h124c0 19 0 43 35 43c34 0 34 -25 34 -42v-63c0 -17 0 -42 -34 -42
c-35 0 -35 24 -35 43h-124v-153h255v42c0 18 0 42 35 42c34 0 34 -25 34 -42v-61zM452 602c0 -31 -24 -31 -40 -31h-297c-17 0 -41 0 -41 32c0 31 24 31 40 31h298c17 0 40 0 40 -32z" />
    <glyph glyph-name="emdash" unicode="&#x2014;" 
d="M468 306c0 -35 -35 -35 -47 -35h-318c-12 0 -47 0 -47 35s35 35 47 35h318c12 0 47 0 47 -35z" />
    <glyph glyph-name="endash" unicode="&#x2013;" 
d="M468 306c0 -35 -35 -35 -47 -35h-318c-12 0 -47 0 -47 35s35 35 47 35h318c12 0 47 0 47 -35z" />
    <glyph glyph-name="Eng" unicode="&#x14a;" 
d="M490 306c0 -150 -12 -317 -140 -317c-24 0 -44 20 -44 44s20 44 44 44c10 0 20 -3 27 -9c43 31 43 144 43 238c0 119 -29 246 -131 246c-70 0 -124 -56 -133 -125v-366h25c16 0 40 0 40 -31c0 -30 -25 -30 -40 -30h-119c-15 0 -40 0 -40 30c0 31 24 31 40 31h25v489h-25
c-15 0 -40 0 -40 30c0 31 24 31 40 31h94v-43c35 34 81 54 133 54c138 0 201 -159 201 -316z" />
    <glyph glyph-name="eng" unicode="&#x14b;" 
d="M490 236c0 -120 -36 -247 -140 -247c-24 0 -44 20 -44 44s20 44 44 44c11 0 21 -4 29 -11c41 24 41 101 41 170c0 91 -49 177 -131 177c-61 0 -120 -31 -129 -84v-268c23 0 48 0 48 -31c0 -30 -28 -30 -42 -30h-81c-14 0 -42 0 -42 30c0 31 25 31 48 31v350
c-23 0 -48 0 -48 31c0 30 28 30 42 30h75v-29c35 25 81 40 129 40c120 0 201 -118 201 -247z" />
    <glyph glyph-name="Eogonek" unicode="&#x118;" 
d="M502 41c0 -32 -7 -41 -40 -41h-29c-53 -31 -87 -67 -87 -110c0 -24 26 -39 44 -39c20 0 43 21 54 37c6 6 28 10 37 5c8 -7 12 -28 5 -37c-24 -33 -62 -59 -100 -59c-63 0 -99 52 -99 95c0 47 26 83 65 108h-285c-15 0 -41 0 -41 30c0 31 25 31 41 31h30v489h-30
c-15 0 -41 0 -41 31c0 30 26 30 41 30h373c34 0 40 -10 40 -41v-73c0 -20 0 -41 -35 -41c-34 0 -34 22 -34 41v53h-245v-203h131c0 41 0 57 35 57c34 0 34 -22 34 -41v-93c0 -19 0 -41 -34 -41c-35 0 -35 16 -35 57h-131v-225h267v69c0 20 0 41 35 41c34 0 34 -22 34 -41
v-89z" />
    <glyph glyph-name="eogonek" unicode="&#x119;" 
d="M494 42c0 -34 -9 -42 -42 -42h-28c-48 -28 -80 -60 -80 -99c0 -22 24 -35 40 -35c18 0 39 19 49 33c5 6 25 9 33 5c7 -7 11 -25 4 -34c-21 -29 -55 -53 -90 -53c-56 0 -89 47 -89 86c0 42 30 75 65 97h-265c-14 0 -42 0 -42 30c0 31 24 31 52 31v350c-28 0 -52 0 -52 31
c0 30 28 30 42 30h340c34 0 42 -9 42 -42v-49c0 -18 0 -42 -35 -42c-34 0 -34 25 -34 42v30h-234v-136h124c0 19 0 43 35 43c34 0 34 -25 34 -42v-63c0 -17 0 -42 -34 -42c-35 0 -35 24 -35 43h-124v-153h255v42c0 18 0 42 35 42c34 0 34 -25 34 -42v-61z" />
    <glyph glyph-name="Epsilon" unicode="&#x395;" 
d="M502 41c0 -32 -7 -41 -40 -41h-395c-15 0 -41 0 -41 30c0 31 25 31 41 31h30v489h-30c-15 0 -41 0 -41 31c0 30 26 30 41 30h373c34 0 40 -10 40 -41v-73c0 -20 0 -41 -35 -41c-34 0 -34 22 -34 41v53h-245v-203h131c0 41 0 57 35 57c34 0 34 -22 34 -41v-93
c0 -19 0 -41 -34 -41c-35 0 -35 16 -35 57h-131v-225h267v69c0 20 0 41 35 41c34 0 34 -22 34 -41v-89z" />
    <glyph glyph-name="Ereversed" unicode="&#x18e;" 
d="M502 30c0 -30 -26 -30 -41 -30h-395c-33 0 -40 9 -40 41v89c0 19 0 41 34 41c35 0 35 -21 35 -41v-69h267v225h-131c0 -41 0 -57 -35 -57c-34 0 -34 22 -34 41v93c0 19 0 41 34 41c35 0 35 -16 35 -57h131v203h-245v-53c0 -19 0 -41 -34 -41c-35 0 -35 21 -35 41v73
c0 31 6 41 40 41h373c15 0 41 0 41 -30c0 -31 -26 -31 -41 -31h-30v-489h30c16 0 41 0 41 -31z" />
    <glyph glyph-name="ereversed" unicode="&#x258;" 
d="M494 30c0 -30 -28 -30 -42 -30h-361c-33 0 -42 8 -42 42v61c0 17 0 42 34 42c35 0 35 -24 35 -42v-42h255v153h-124c0 -19 0 -43 -35 -43c-34 0 -34 25 -34 42v63c0 17 0 42 34 42c35 0 35 -24 35 -43h124v136h-234v-30c0 -17 0 -42 -34 -42c-35 0 -35 24 -35 42v49
c0 33 8 42 42 42h340c14 0 42 0 42 -30c0 -31 -24 -31 -52 -31v-350c28 0 52 0 52 -31z" />
    <glyph glyph-name="estimated" unicode="&#x212e;" 
d="M482 111c0 -7 -3 -14 -6 -20c-38 -76 -123 -96 -197 -96c-164 0 -248 172 -248 312c0 133 74 314 236 314c155 0 215 -154 215 -286v-7c0 -29 -15 -37 -40 -37h-340v-11c0 -99 80 -224 188 -224c39 0 82 11 109 41c16 20 17 41 46 41c16 0 37 -5 37 -27zM411 351
c0 87 -39 209 -143 209c-97 0 -159 -121 -164 -209h307z" />
    <glyph glyph-name="Eta" unicode="&#x397;" 
d="M502 30c0 -30 -25 -30 -40 -30h-119c-16 0 -40 0 -40 31c0 30 25 30 40 30h25v226h-212v-226h25c16 0 40 0 40 -31c0 -30 -25 -30 -40 -30h-119c-15 0 -40 0 -40 30c0 31 24 31 40 31h25v489h-25c-15 0 -40 0 -40 30c0 31 24 31 40 31h119c16 0 40 0 40 -31
c0 -30 -25 -30 -40 -30h-25v-202h212v202h-25c-16 0 -40 0 -40 31c0 30 25 30 40 30h119c16 0 40 0 40 -31c0 -30 -25 -30 -40 -30h-25v-489h25c16 0 40 0 40 -31z" />
    <glyph glyph-name="Eth" unicode="&#xd0;" 
d="M485 301c0 -161 -88 -301 -219 -301h-206c-15 0 -41 0 -41 30c0 31 25 31 41 31h22v214h-28c-17 0 -31 13 -31 31c0 17 14 31 31 31h28v213h-22c-15 0 -41 0 -41 30c0 31 25 31 41 31h206c133 0 219 -150 219 -310zM416 301c0 116 -56 249 -169 249h-96v-213h59
c17 0 31 -14 31 -31c0 -18 -14 -31 -31 -31h-59v-214h96c111 0 169 123 169 240z" />
    <glyph glyph-name="eth" unicode="&#xf0;" 
d="M477 233c0 -124 -85 -233 -211 -233h-184c-14 0 -42 0 -42 30c0 31 26 31 46 31v140c-19 0 -46 0 -46 31c0 30 24 30 46 30v149c-20 0 -46 0 -46 31c0 30 28 30 42 30h184c130 0 211 -119 211 -239zM407 233c0 80 -52 178 -160 178h-91v-149h104c14 0 40 0 40 -30
c0 -31 -28 -31 -44 -31h-100v-140h91c104 0 160 87 160 172z" />
    <glyph glyph-name="Etilde" unicode="&#x1ebc;" 
d="M502 41c0 -32 -7 -41 -40 -41h-395c-15 0 -41 0 -41 30c0 31 25 31 41 31h30v489h-30c-15 0 -41 0 -41 31c0 30 26 30 41 30h373c34 0 40 -10 40 -41v-73c0 -20 0 -41 -35 -41c-34 0 -34 22 -34 41v53h-245v-203h131c0 41 0 57 35 57c34 0 34 -22 34 -41v-93
c0 -19 0 -41 -34 -41c-35 0 -35 16 -35 57h-131v-225h267v69c0 20 0 41 35 41c34 0 34 -22 34 -41v-89zM438 751c0 -18 -29 -40 -49 -55c-23 -17 -51 -33 -78 -33c-34 0 -54 21 -67 34c-13 12 -21 21 -31 21c-14 0 -40 -16 -70 -44c-7 -6 -13 -11 -24 -11
c-16 0 -31 16 -31 32c0 18 29 40 49 55c23 17 51 33 78 33c34 0 54 -21 67 -34c13 -12 21 -21 31 -21c14 0 40 16 70 44c7 6 13 11 24 11c16 0 31 -16 31 -32z" />
    <glyph glyph-name="etilde" unicode="&#x1ebd;" 
d="M494 42c0 -34 -9 -42 -42 -42h-361c-14 0 -42 0 -42 30c0 31 24 31 52 31v350c-28 0 -52 0 -52 31c0 30 28 30 42 30h340c34 0 42 -9 42 -42v-49c0 -18 0 -42 -35 -42c-34 0 -34 25 -34 42v30h-234v-136h124c0 19 0 43 35 43c34 0 34 -25 34 -42v-63c0 -17 0 -42 -34 -42
c-35 0 -35 24 -35 43h-124v-153h255v42c0 18 0 42 35 42c34 0 34 -25 34 -42v-61zM438 630c0 -18 -29 -40 -49 -55c-23 -17 -51 -33 -78 -33c-34 0 -54 21 -67 34c-13 12 -21 21 -31 21c-14 0 -40 -16 -70 -44c-7 -6 -13 -11 -24 -11c-16 0 -31 16 -31 32c0 18 29 40 49 55
c23 17 51 33 78 33c34 0 54 -21 67 -34c13 -12 21 -21 31 -21c14 0 40 16 70 44c7 6 13 11 24 11c16 0 31 -16 31 -32z" />
    <glyph glyph-name="eturned" unicode="&#x1dd;" 
d="M494 30c0 -30 -28 -30 -42 -30h-340c-34 0 -42 9 -42 42v49c0 18 0 42 35 42c34 0 34 -25 34 -42v-30h234v136h-124c0 -19 0 -43 -35 -43c-34 0 -34 25 -34 42v63c0 17 0 42 34 42c35 0 35 -24 35 -43h124v153h-255v-42c0 -18 0 -42 -35 -42c-34 0 -34 25 -34 42v61
c0 34 9 42 42 42h361c14 0 42 0 42 -30c0 -31 -24 -31 -52 -31v-350c28 0 52 0 52 -31z" />
    <glyph glyph-name="Euro" unicode="&#x20ac;" 
d="M467 18c0 -16 -13 -29 -29 -29h-4c-9 0 -17 4 -22 11l-10 12c-25 -15 -55 -23 -86 -23c-62 0 -113 44 -146 98c-23 39 -37 80 -45 124h-40c-15 0 -26 14 -22 28l4 16c2 10 11 18 22 18h28c-1 11 -1 22 -1 33s0 22 1 33h-32c-15 0 -26 14 -22 28l4 16c2 10 11 18 22 18h36
c8 43 22 85 45 123c33 54 84 98 146 98c31 0 61 -8 86 -23l10 13c5 6 13 10 22 10h4c16 0 29 -13 29 -29v-95c0 -16 -13 -29 -29 -29h-12c-15 0 -27 11 -29 25c-5 38 -38 66 -76 66c-41 0 -70 -33 -91 -68c-16 -29 -27 -60 -34 -91h178c14 0 25 -11 23 -23l-5 -22
c-2 -10 -11 -17 -22 -17h-183c-1 -11 -1 -22 -1 -33s0 -22 1 -33h156c14 0 25 -11 23 -23l-5 -22c-2 -10 -11 -17 -22 -17h-143c7 -32 18 -63 34 -91c21 -36 50 -69 91 -69c38 0 71 28 76 66c2 14 14 25 29 25h12c16 0 29 -13 29 -29v-95z" />
    <glyph glyph-name="exclamdown" unicode="&#xa1;" 
d="M312 560c0 -28 -22 -50 -50 -50s-50 22 -50 50s22 50 50 50s50 -22 50 -50zM312 -176c0 -53 -41 -57 -50 -57s-50 4 -50 57s4 108 5 160l4 173c2 40 6 48 41 48c12 0 39 0 40 -25l3 -122z" />
    <glyph glyph-name="florin" unicode="&#x192;" 
d="M482 381c0 -18 0 -42 -35 -42c-34 0 -34 25 -34 42v30h-238v-144h129c0 19 0 43 35 43c34 0 34 -25 34 -42v-63c0 -17 0 -42 -34 -42c-35 0 -35 24 -35 43h-129v-145h26c15 0 42 0 42 -31c0 -30 -28 -30 -42 -30h-108c-13 0 -42 0 -42 30c0 31 25 31 55 31v350
c-30 0 -55 0 -55 31c0 30 29 30 42 30h347c34 0 42 -9 42 -42v-49z" />
    <glyph glyph-name="fraction" unicode="&#x2044;" 
d="M455 591c0 -6 -1 -12 -4 -17l-315 -571c-6 -11 -17 -18 -31 -18c-19 0 -35 16 -35 35c0 6 2 12 5 17l315 571c6 11 17 18 30 18c20 0 35 -16 35 -35z" />
    <glyph glyph-name="fraction.alt" unicode="&#x2215;" horiz-adv-x="0" 
d="M193 591c0 -6 -1 -12 -4 -17l-315 -571c-6 -11 -17 -18 -31 -18c-19 0 -35 16 -35 35c0 6 2 12 5 17l315 571c6 11 17 18 30 18c20 0 35 -16 35 -35z" />
    <glyph glyph-name="Gacute" unicode="&#x1f4;" 
d="M496 240c0 -31 -23 -31 -47 -31v-168c0 -19 0 -41 -34 -41c-35 0 -35 20 -35 42c-20 -23 -62 -53 -119 -53c-119 0 -223 133 -223 317c0 181 103 316 223 316c42 0 82 -15 117 -45c15 34 20 45 41 45c30 0 30 -25 30 -41v-139c0 -20 0 -41 -35 -41c-26 0 -32 12 -34 29
c-17 108 -80 131 -115 131c-78 0 -158 -103 -158 -256c0 -147 76 -255 157 -255c53 0 102 47 114 159h-42c-16 0 -40 0 -40 31c0 30 25 30 40 30h119c15 0 41 0 41 -30zM369 772c0 -11 -4 -24 -28 -35l-133 -59c-6 -3 -11 -5 -18 -5c-26 0 -33 32 -33 40c0 18 11 23 25 29
l133 60c11 5 19 5 19 5c20 0 35 -15 35 -35z" />
    <glyph glyph-name="gacute" unicode="&#x1f5;" 
d="M487 189c0 -31 -26 -31 -45 -31v-117c0 -19 0 -41 -35 -41c-7 0 -35 0 -35 34c-32 -28 -72 -42 -113 -42c-115 0 -215 105 -215 244c0 136 98 244 216 244c53 0 94 -21 112 -33c19 32 29 33 39 33c31 0 31 -26 31 -41v-95c0 -18 0 -41 -35 -41c-29 0 -32 16 -34 30
c-12 60 -66 86 -110 86c-79 0 -150 -78 -150 -183c0 -107 72 -183 148 -183c61 0 99 53 109 105h-37c-14 0 -42 0 -42 31c0 30 29 30 42 30h112c14 0 42 0 42 -30zM369 634c0 -11 -4 -24 -28 -35l-133 -59c-6 -3 -11 -5 -18 -5c-26 0 -33 32 -33 40c0 18 11 23 25 29l133 60
c11 5 19 5 19 5c20 0 35 -15 35 -35z" />
    <glyph glyph-name="Gamma" unicode="&#x393;" 
d="M488 497c0 -20 0 -41 -35 -41c-34 0 -34 22 -34 41v53h-241v-489h56c15 0 41 0 41 -31c0 -30 -27 -30 -41 -30h-162c-15 0 -40 0 -40 30c0 31 24 31 40 31h37v489h-37c-15 0 -40 0 -40 30c0 31 24 31 40 31h376c34 0 40 -10 40 -41v-73z" />
    <glyph glyph-name="Gbreve" unicode="&#x11e;" 
d="M496 240c0 -31 -23 -31 -47 -31v-168c0 -19 0 -41 -34 -41c-35 0 -35 20 -35 42c-20 -23 -62 -53 -119 -53c-119 0 -223 133 -223 317c0 181 103 316 223 316c42 0 82 -15 117 -45c15 34 20 45 41 45c30 0 30 -25 30 -41v-139c0 -20 0 -41 -35 -41c-26 0 -32 12 -34 29
c-17 108 -80 131 -115 131c-78 0 -158 -103 -158 -256c0 -147 76 -255 157 -255c53 0 102 47 114 159h-42c-16 0 -40 0 -40 31c0 30 25 30 40 30h119c15 0 41 0 41 -30zM439 755c0 -82 -110 -82 -176 -82s-176 0 -176 82c0 19 12 31 31 31c24 0 28 -17 30 -29
c5 -20 72 -20 115 -20c42 0 110 0 115 20c2 12 6 29 30 29c20 0 31 -12 31 -31z" />
    <glyph glyph-name="gbreve" unicode="&#x11f;" 
d="M487 189c0 -31 -26 -31 -45 -31v-117c0 -19 0 -41 -35 -41c-7 0 -35 0 -35 34c-32 -28 -72 -42 -113 -42c-115 0 -215 105 -215 244c0 136 98 244 216 244c53 0 94 -21 112 -33c19 32 29 33 39 33c31 0 31 -26 31 -41v-95c0 -18 0 -41 -35 -41c-29 0 -32 16 -34 30
c-12 60 -66 86 -110 86c-79 0 -150 -78 -150 -183c0 -107 72 -183 148 -183c61 0 99 53 109 105h-37c-14 0 -42 0 -42 31c0 30 29 30 42 30h112c14 0 42 0 42 -30zM439 628c0 -82 -110 -82 -176 -82s-176 0 -176 82c0 19 12 31 31 31c24 0 28 -17 30 -29
c5 -20 72 -20 115 -20c42 0 110 0 115 20c2 12 6 29 30 29c20 0 31 -12 31 -31z" />
    <glyph glyph-name="Gcaron" unicode="&#x1e6;" 
d="M496 240c0 -31 -23 -31 -47 -31v-168c0 -19 0 -41 -34 -41c-35 0 -35 20 -35 42c-20 -23 -62 -53 -119 -53c-119 0 -223 133 -223 317c0 181 103 316 223 316c42 0 82 -15 117 -45c15 34 20 45 41 45c30 0 30 -25 30 -41v-139c0 -20 0 -41 -35 -41c-26 0 -32 12 -34 29
c-17 108 -80 131 -115 131c-78 0 -158 -103 -158 -256c0 -147 76 -255 157 -255c53 0 102 47 114 159h-42c-16 0 -40 0 -40 31c0 30 25 30 40 30h119c15 0 41 0 41 -30zM390 708l-118 -43c-6 -2 -13 -2 -19 0l-118 43c-35 13 -17 67 19 56l109 -33l109 33
c36 11 54 -43 18 -56z" />
    <glyph glyph-name="gcaron" unicode="&#x1e7;" 
d="M487 189c0 -31 -26 -31 -45 -31v-117c0 -19 0 -41 -35 -41c-7 0 -35 0 -35 34c-32 -28 -72 -42 -113 -42c-115 0 -215 105 -215 244c0 136 98 244 216 244c53 0 94 -21 112 -33c19 32 29 33 39 33c31 0 31 -26 31 -41v-95c0 -18 0 -41 -35 -41c-29 0 -32 16 -34 30
c-12 60 -66 86 -110 86c-79 0 -150 -78 -150 -183c0 -107 72 -183 148 -183c61 0 99 53 109 105h-37c-14 0 -42 0 -42 31c0 30 29 30 42 30h112c14 0 42 0 42 -30zM397 614l-118 -75c-9 -6 -21 -6 -30 0l-120 76c-34 21 -2 69 31 49l103 -62l103 62c33 20 64 -29 31 -50z
" />
    <glyph glyph-name="Gcircumflex" unicode="&#x11c;" 
d="M496 240c0 -31 -23 -31 -47 -31v-168c0 -19 0 -41 -34 -41c-35 0 -35 20 -35 42c-20 -23 -62 -53 -119 -53c-119 0 -223 133 -223 317c0 181 103 316 223 316c42 0 82 -15 117 -45c15 34 20 45 41 45c30 0 30 -25 30 -41v-139c0 -20 0 -41 -35 -41c-26 0 -32 12 -34 29
c-17 108 -80 131 -115 131c-78 0 -158 -103 -158 -256c0 -147 76 -255 157 -255c53 0 102 47 114 159h-42c-16 0 -40 0 -40 31c0 30 25 30 40 30h119c15 0 41 0 41 -30zM391 721c35 -13 17 -67 -19 -56l-109 33l-109 -33c-36 -11 -54 43 -18 56l118 43c6 2 13 2 19 0z" />
    <glyph glyph-name="gcircumflex" unicode="&#x11d;" 
d="M487 189c0 -31 -26 -31 -45 -31v-117c0 -19 0 -41 -35 -41c-7 0 -35 0 -35 34c-32 -28 -72 -42 -113 -42c-115 0 -215 105 -215 244c0 136 98 244 216 244c53 0 94 -21 112 -33c19 32 29 33 39 33c31 0 31 -26 31 -41v-95c0 -18 0 -41 -35 -41c-29 0 -32 16 -34 30
c-12 60 -66 86 -110 86c-79 0 -150 -78 -150 -183c0 -107 72 -183 148 -183c61 0 99 53 109 105h-37c-14 0 -42 0 -42 31c0 30 29 30 42 30h112c14 0 42 0 42 -30zM397 589c34 -21 2 -69 -31 -49l-103 62l-103 -62c-33 -20 -64 29 -31 50l118 75c9 6 21 6 30 0z" />
    <glyph glyph-name="Gcommaaccent" unicode="&#x122;" 
d="M496 240c0 -31 -23 -31 -47 -31v-168c0 -19 0 -41 -34 -41c-35 0 -35 20 -35 42c-20 -23 -62 -53 -119 -53c-119 0 -223 133 -223 317c0 181 103 316 223 316c42 0 82 -15 117 -45c15 34 20 45 41 45c30 0 30 -25 30 -41v-139c0 -20 0 -41 -35 -41c-26 0 -32 12 -34 29
c-17 108 -80 131 -115 131c-78 0 -158 -103 -158 -256c0 -147 76 -255 157 -255c53 0 102 47 114 159h-42c-16 0 -40 0 -40 31c0 30 25 30 40 30h119c15 0 41 0 41 -30zM325 -108c0 -82 -77 -123 -101 -123c-12 0 -24 13 -24 24c0 15 14 19 21 21c9 3 45 15 56 62
c-5 -2 -11 -3 -15 -3c-25 0 -47 19 -47 48c0 24 18 46 48 46c33 0 62 -29 62 -75z" />
    <glyph glyph-name="gcommaaccent" unicode="&#x123;" 
d="M487 189c0 -31 -26 -31 -45 -31v-117c0 -19 0 -41 -35 -41c-7 0 -35 0 -35 34c-32 -28 -72 -42 -113 -42c-115 0 -215 105 -215 244c0 136 98 244 216 244c53 0 94 -21 112 -33c19 32 29 33 39 33c31 0 31 -26 31 -41v-95c0 -18 0 -41 -35 -41c-29 0 -32 16 -34 30
c-12 60 -66 86 -110 86c-79 0 -150 -78 -150 -183c0 -107 72 -183 148 -183c61 0 99 53 109 105h-37c-14 0 -42 0 -42 31c0 30 29 30 42 30h112c14 0 42 0 42 -30zM325 -108c0 -82 -77 -123 -101 -123c-12 0 -24 13 -24 24c0 15 14 19 21 21c9 3 45 15 56 62
c-5 -2 -11 -3 -15 -3c-25 0 -47 19 -47 48c0 24 18 46 48 46c33 0 62 -29 62 -75z" />
    <glyph glyph-name="Gdotaccent" unicode="&#x120;" 
d="M496 240c0 -31 -23 -31 -47 -31v-168c0 -19 0 -41 -34 -41c-35 0 -35 20 -35 42c-20 -23 -62 -53 -119 -53c-119 0 -223 133 -223 317c0 181 103 316 223 316c42 0 82 -15 117 -45c15 34 20 45 41 45c30 0 30 -25 30 -41v-139c0 -20 0 -41 -35 -41c-26 0 -32 12 -34 29
c-17 108 -80 131 -115 131c-78 0 -158 -103 -158 -256c0 -147 76 -255 157 -255c53 0 102 47 114 159h-42c-16 0 -40 0 -40 31c0 30 25 30 40 30h119c15 0 41 0 41 -30zM313 724c0 -28 -22 -50 -50 -50s-50 22 -50 50s22 50 50 50s50 -22 50 -50z" />
    <glyph glyph-name="gdotaccent" unicode="&#x121;" 
d="M487 189c0 -31 -26 -31 -45 -31v-117c0 -19 0 -41 -35 -41c-7 0 -35 0 -35 34c-32 -28 -72 -42 -113 -42c-115 0 -215 105 -215 244c0 136 98 244 216 244c53 0 94 -21 112 -33c19 32 29 33 39 33c31 0 31 -26 31 -41v-95c0 -18 0 -41 -35 -41c-29 0 -32 16 -34 30
c-12 60 -66 86 -110 86c-79 0 -150 -78 -150 -183c0 -107 72 -183 148 -183c61 0 99 53 109 105h-37c-14 0 -42 0 -42 31c0 30 29 30 42 30h112c14 0 42 0 42 -30zM313 602c0 -28 -22 -50 -50 -50s-50 22 -50 50s22 50 50 50s50 -22 50 -50z" />
    <glyph glyph-name="germandbls" unicode="&#xdf;" horiz-adv-x="1050" 
d="M464 132c0 -58 -52 -140 -186 -140c-22 0 -104 0 -155 27c0 0 -7 -27 -33 -27c-31 0 -31 26 -31 41v81c0 18 0 42 35 42c32 0 33 -20 34 -34c2 -21 8 -45 53 -58c39 -11 90 -11 98 -11c92 0 120 49 120 75c0 41 -45 64 -75 71l-66 12c-88 16 -113 21 -147 45
c-26 19 -52 49 -52 93c0 66 67 131 181 131c39 0 94 -6 134 -30c4 17 17 30 34 30c31 0 31 -26 31 -41v-82c0 -18 0 -41 -35 -41c-9 0 -28 0 -34 25c-5 25 -17 78 -131 78c-73 0 -115 -35 -115 -66c0 -23 19 -49 83 -62c17 -4 54 -10 74 -14c66 -12 103 -19 140 -52
c23 -21 43 -52 43 -93zM973 132c0 -58 -52 -140 -186 -140c-22 0 -104 0 -155 27c0 0 -7 -27 -33 -27c-31 0 -31 26 -31 41v81c0 18 0 42 35 42c32 0 33 -20 34 -34c2 -21 8 -45 53 -58c39 -11 90 -11 98 -11c92 0 120 49 120 75c0 41 -45 64 -75 71l-66 12
c-88 16 -113 21 -147 45c-26 19 -52 49 -52 93c0 66 67 131 181 131c39 0 94 -6 134 -30c4 17 17 30 34 30c31 0 31 -26 31 -41v-82c0 -18 0 -41 -35 -41c-9 0 -28 0 -34 25c-5 25 -17 78 -131 78c-73 0 -115 -35 -115 -66c0 -23 19 -49 83 -62c17 -4 54 -10 74 -14
c66 -12 103 -19 140 -52c23 -21 43 -52 43 -93z" />
    <glyph glyph-name="uni0300" unicode="&#x300;" horiz-adv-x="0" 
d="M-157 533c0 -8 -7 -40 -33 -40c-7 0 -12 2 -18 5l-133 59c-24 11 -28 24 -28 35c0 20 15 35 35 35c0 0 8 0 19 -5l133 -60c14 -6 25 -11 25 -29z" />
    <glyph glyph-name="guillemotleft" unicode="&#xab;" 
d="M478 113c0 -21 -11 -32 -22 -32c-6 0 -8 1 -18 9l-218 188c-6 6 -11 16 -11 28c0 17 8 24 14 30l215 186c10 8 12 9 18 9c11 0 22 -11 22 -32c0 -17 -8 -24 -15 -30l-188 -163l188 -163c7 -6 15 -13 15 -30zM316 113c0 -21 -11 -32 -22 -32c-5 0 -8 1 -18 9l-218 188
c-6 6 -11 16 -11 28c0 17 8 24 14 30l215 186c10 8 13 9 18 9c11 0 22 -11 22 -32c0 -17 -8 -24 -15 -30l-188 -163l188 -163c7 -6 15 -13 15 -30z" />
    <glyph glyph-name="guillemotright" unicode="&#xbb;" 
d="M477 306c0 -12 -5 -22 -11 -28l-218 -188c-10 -8 -13 -9 -18 -9c-11 0 -22 11 -22 32c0 17 8 24 15 30l188 163l-188 163c-7 6 -15 13 -15 30c0 21 11 32 22 32c5 0 8 -1 18 -9l215 -186c6 -6 14 -13 14 -30zM315 306c0 -12 -5 -22 -11 -28l-218 -188
c-10 -8 -12 -9 -18 -9c-11 0 -22 11 -22 32c0 17 8 24 15 30l188 163l-188 163c-7 6 -15 13 -15 30c0 21 11 32 22 32c6 0 8 -1 18 -9l215 -186c6 -6 14 -13 14 -30z" />
    <glyph glyph-name="guilsinglleft" unicode="&#x2039;" 
d="M397 113c0 -21 -11 -32 -22 -32c-6 0 -8 1 -18 9l-218 188c-6 6 -11 16 -11 28c0 17 8 24 14 30l215 186c10 8 12 9 18 9c11 0 22 -11 22 -32c0 -17 -8 -24 -15 -30l-188 -163l188 -163c7 -6 15 -13 15 -30z" />
    <glyph glyph-name="guilsinglright" unicode="&#x203a;" 
d="M397 306c0 -12 -5 -22 -11 -28l-218 -188c-10 -8 -13 -9 -18 -9c-11 0 -22 11 -22 32c0 17 8 24 15 30l188 163l-188 163c-7 6 -15 13 -15 30c0 21 11 32 22 32c5 0 8 -1 18 -9l215 -186c6 -6 14 -13 14 -30z" />
    <glyph glyph-name="Hbar" unicode="&#x126;" 
d="M502 30c0 -30 -25 -30 -40 -30h-119c-16 0 -40 0 -40 31c0 30 25 30 40 30h25v226h-212v-226h25c16 0 40 0 40 -31c0 -30 -25 -30 -40 -30h-119c-15 0 -40 0 -40 30c0 31 24 31 40 31h25v366h-30c-17 0 -31 14 -31 31s14 31 31 31h30v61h-25c-15 0 -40 0 -40 30
c0 31 24 31 40 31h119c16 0 40 0 40 -31c0 -30 -25 -30 -40 -30h-25v-61h212v61h-25c-16 0 -40 0 -40 31c0 30 25 30 40 30h119c16 0 40 0 40 -31c0 -30 -25 -30 -40 -30h-25v-61h30c17 0 31 -14 31 -31s-14 -31 -31 -31h-30v-366h25c16 0 40 0 40 -31zM368 348v79h-212v-79
h212z" />
    <glyph glyph-name="hbar" unicode="&#x127;" 
d="M480 30c0 -30 -28 -30 -42 -30h-81c-14 0 -42 0 -42 30c0 31 25 31 48 31v154h-203v-154c23 0 48 0 48 -31c0 -30 -28 -30 -42 -30h-81c-14 0 -42 0 -42 30c0 31 25 31 48 31v262h-13c-17 0 -31 14 -31 31s14 31 31 31h13v26c-23 0 -48 0 -48 31c0 30 28 30 42 30h81
c14 0 42 0 42 -30c0 -31 -25 -31 -48 -31v-26h203v26c-23 0 -48 0 -48 31c0 30 28 30 42 30h81c14 0 42 0 42 -30c0 -31 -25 -31 -48 -31v-26h13c17 0 31 -14 31 -31s-14 -31 -31 -31h-13v-262c23 0 48 0 48 -31zM363 276v47h-203v-47h203z" />
    <glyph glyph-name="Hbrevebelow" unicode="&#x1e2a;" 
d="M502 30c0 -30 -25 -30 -40 -30h-119c-16 0 -40 0 -40 31c0 30 25 30 40 30h25v226h-212v-226h25c16 0 40 0 40 -31c0 -30 -25 -30 -40 -30h-119c-15 0 -40 0 -40 30c0 31 24 31 40 31h25v489h-25c-15 0 -40 0 -40 30c0 31 24 31 40 31h119c16 0 40 0 40 -31
c0 -30 -25 -30 -40 -30h-25v-202h212v202h-25c-16 0 -40 0 -40 31c0 30 25 30 40 30h119c16 0 40 0 40 -31c0 -30 -25 -30 -40 -30h-25v-489h25c16 0 40 0 40 -31zM439 -124c0 -82 -110 -82 -176 -82s-176 0 -176 82c0 19 12 31 31 31c24 0 28 -17 30 -29
c5 -20 72 -20 115 -20c42 0 110 0 115 20c2 12 6 29 30 29c20 0 31 -12 31 -31z" />
    <glyph glyph-name="hbrevebelow" unicode="&#x1e2b;" 
d="M480 30c0 -30 -28 -30 -42 -30h-81c-14 0 -42 0 -42 30c0 31 25 31 48 31v154h-203v-154c23 0 48 0 48 -31c0 -30 -28 -30 -42 -30h-81c-14 0 -42 0 -42 30c0 31 25 31 48 31v350c-23 0 -48 0 -48 31c0 30 28 30 42 30h81c14 0 42 0 42 -30c0 -31 -25 -31 -48 -31v-135
h203v135c-23 0 -48 0 -48 31c0 30 28 30 42 30h81c14 0 42 0 42 -30c0 -31 -25 -31 -48 -31v-350c23 0 48 0 48 -31zM439 -124c0 -82 -110 -82 -176 -82s-176 0 -176 82c0 19 12 31 31 31c24 0 28 -17 30 -29c5 -20 72 -20 115 -20c42 0 110 0 115 20c2 12 6 29 30 29
c20 0 31 -12 31 -31z" />
    <glyph glyph-name="Hcircumflex" unicode="&#x124;" 
d="M502 30c0 -30 -25 -30 -40 -30h-119c-16 0 -40 0 -40 31c0 30 25 30 40 30h25v226h-212v-226h25c16 0 40 0 40 -31c0 -30 -25 -30 -40 -30h-119c-15 0 -40 0 -40 30c0 31 24 31 40 31h25v489h-25c-15 0 -40 0 -40 30c0 31 24 31 40 31h119c16 0 40 0 40 -31
c0 -30 -25 -30 -40 -30h-25v-202h212v202h-25c-16 0 -40 0 -40 31c0 30 25 30 40 30h119c16 0 40 0 40 -31c0 -30 -25 -30 -40 -30h-25v-489h25c16 0 40 0 40 -31zM391 721c35 -13 17 -67 -19 -56l-109 33l-109 -33c-36 -11 -54 43 -18 56l118 43c6 2 13 2 19 0z" />
    <glyph glyph-name="hcircumflex" unicode="&#x125;" 
d="M480 30c0 -30 -28 -30 -42 -30h-81c-14 0 -42 0 -42 30c0 31 25 31 48 31v154h-203v-154c23 0 48 0 48 -31c0 -30 -28 -30 -42 -30h-81c-14 0 -42 0 -42 30c0 31 25 31 48 31v350c-23 0 -48 0 -48 31c0 30 28 30 42 30h81c14 0 42 0 42 -30c0 -31 -25 -31 -48 -31v-135
h203v135c-23 0 -48 0 -48 31c0 30 28 30 42 30h81c14 0 42 0 42 -30c0 -31 -25 -31 -48 -31v-350c23 0 48 0 48 -31zM260 589c34 -21 2 -69 -31 -49l-103 62l-103 -62c-33 -20 -64 29 -31 50l118 75c9 6 21 6 30 0z" />
    <glyph glyph-name="Hdieresis" unicode="&#x1e26;" 
d="M502 30c0 -30 -25 -30 -40 -30h-119c-16 0 -40 0 -40 31c0 30 25 30 40 30h25v226h-212v-226h25c16 0 40 0 40 -31c0 -30 -25 -30 -40 -30h-119c-15 0 -40 0 -40 30c0 31 24 31 40 31h25v489h-25c-15 0 -40 0 -40 30c0 31 24 31 40 31h119c16 0 40 0 40 -31
c0 -30 -25 -30 -40 -30h-25v-202h212v202h-25c-16 0 -40 0 -40 31c0 30 25 30 40 30h119c16 0 40 0 40 -31c0 -30 -25 -30 -40 -30h-25v-489h25c16 0 40 0 40 -31zM210 708c0 -25 -20 -45 -45 -45c-26 0 -45 20 -45 45s19 45 45 45c25 0 45 -20 45 -45zM405 708
c0 -25 -20 -45 -45 -45c-26 0 -45 20 -45 45s19 45 45 45c25 0 45 -20 45 -45z" />
    <glyph glyph-name="hdieresis" unicode="&#x1e27;" 
d="M480 30c0 -30 -28 -30 -42 -30h-81c-14 0 -42 0 -42 30c0 31 25 31 48 31v154h-203v-154c23 0 48 0 48 -31c0 -30 -28 -30 -42 -30h-81c-14 0 -42 0 -42 30c0 31 25 31 48 31v350c-23 0 -48 0 -48 31c0 30 28 30 42 30h81c14 0 42 0 42 -30c0 -31 -25 -31 -48 -31v-135
h203v135c-23 0 -48 0 -48 31c0 30 28 30 42 30h81c14 0 42 0 42 -30c0 -31 -25 -31 -48 -31v-350c23 0 48 0 48 -31zM88 602c0 -25 -20 -45 -45 -45c-26 0 -45 20 -45 45s19 45 45 45c25 0 45 -20 45 -45zM253 602c0 -25 -20 -45 -45 -45c-26 0 -45 20 -45 45s19 45 45 45
c25 0 45 -20 45 -45z" />
    <glyph glyph-name="Hdotbelow" unicode="&#x1e24;" 
d="M502 30c0 -30 -25 -30 -40 -30h-119c-16 0 -40 0 -40 31c0 30 25 30 40 30h25v226h-212v-226h25c16 0 40 0 40 -31c0 -30 -25 -30 -40 -30h-119c-15 0 -40 0 -40 30c0 31 24 31 40 31h25v489h-25c-15 0 -40 0 -40 30c0 31 24 31 40 31h119c16 0 40 0 40 -31
c0 -30 -25 -30 -40 -30h-25v-202h212v202h-25c-16 0 -40 0 -40 31c0 30 25 30 40 30h119c16 0 40 0 40 -31c0 -30 -25 -30 -40 -30h-25v-489h25c16 0 40 0 40 -31zM313 -150c0 -28 -22 -50 -50 -50s-50 22 -50 50s22 50 50 50s50 -22 50 -50z" />
    <glyph glyph-name="hdotbelow" unicode="&#x1e25;" 
d="M480 30c0 -30 -28 -30 -42 -30h-81c-14 0 -42 0 -42 30c0 31 25 31 48 31v154h-203v-154c23 0 48 0 48 -31c0 -30 -28 -30 -42 -30h-81c-14 0 -42 0 -42 30c0 31 25 31 48 31v350c-23 0 -48 0 -48 31c0 30 28 30 42 30h81c14 0 42 0 42 -30c0 -31 -25 -31 -48 -31v-135
h203v135c-23 0 -48 0 -48 31c0 30 28 30 42 30h81c14 0 42 0 42 -30c0 -31 -25 -31 -48 -31v-350c23 0 48 0 48 -31zM176 -150c0 -28 -22 -50 -50 -50s-50 22 -50 50s22 50 50 50s50 -22 50 -50z" />
    <glyph glyph-name="uni0309" unicode="&#x309;" horiz-adv-x="0" 
d="M-160 588c0 -25 -18 -43 -38 -52c-31 -14 -42 -23 -42 -32v-14c0 -16 -13 -29 -29 -29s-29 13 -29 29v14c0 45 35 67 77 86l2 1s-2 2 -4 3c-11 6 -25 8 -46 8c-25 0 -36 -9 -36 -13c0 -16 -13 -29 -29 -29c-17 0 -30 13 -30 29c0 50 49 71 95 71c27 0 51 -3 73 -14
c21 -11 36 -33 36 -58z" />
    <glyph glyph-name="hungarumlaut" unicode="&#x2dd;" 
d="M231 618c13 -14 11 -36 -3 -49l-77 -70c-15 -13 -37 -12 -50 3c-13 14 -11 36 3 49l77 70c15 13 37 12 50 -3zM425 618c13 -14 11 -36 -3 -49l-77 -70c-15 -13 -37 -12 -50 3c-13 14 -11 36 3 49l77 70c15 13 37 12 50 -3z" />
    <glyph glyph-name="uni030B" unicode="&#x30b;" horiz-adv-x="0" 
d="M-294 618c13 -14 11 -36 -3 -49l-77 -70c-15 -13 -37 -12 -50 3c-13 14 -11 36 3 49l77 70c15 13 37 12 50 -3zM-100 618c13 -14 11 -36 -3 -49l-77 -70c-15 -13 -37 -12 -50 3c-13 14 -11 36 3 49l77 70c15 13 37 12 50 -3z" />
    <glyph glyph-name="Iacute" unicode="&#xcd;" 
d="M446 30c0 -30 -26 -30 -41 -30h-285c-15 0 -41 0 -41 31c0 30 26 30 41 30h108v489h-108c-15 0 -41 0 -41 31c0 30 26 30 41 30h285c15 0 41 0 41 -31c0 -30 -26 -30 -41 -30h-108v-489h108c15 0 41 0 41 -31zM369 772c0 -11 -4 -24 -28 -35l-133 -59
c-6 -3 -11 -5 -18 -5c-26 0 -33 32 -33 40c0 18 11 23 25 29l133 60c11 5 19 5 19 5c20 0 35 -15 35 -35z" />
    <glyph glyph-name="iacute" unicode="&#xed;" 
d="M406 30c0 -30 -29 -30 -42 -30h-205c-13 0 -42 0 -42 30c0 31 28 31 42 31h68v350h-68c-13 0 -42 0 -42 30c0 31 28 31 42 31h205c14 0 42 0 42 -31c0 -30 -29 -30 -42 -30h-68v-350h68c14 0 42 0 42 -31zM369 633c0 -11 -4 -24 -28 -35l-133 -59c-6 -3 -11 -5 -18 -5
c-26 0 -33 32 -33 40c0 18 11 23 25 29l133 60c11 5 19 5 19 5c20 0 35 -15 35 -35z" />
    <glyph glyph-name="Ibreve" unicode="&#x12c;" 
d="M446 30c0 -30 -26 -30 -41 -30h-285c-15 0 -41 0 -41 31c0 30 26 30 41 30h108v489h-108c-15 0 -41 0 -41 31c0 30 26 30 41 30h285c15 0 41 0 41 -31c0 -30 -26 -30 -41 -30h-108v-489h108c15 0 41 0 41 -31zM439 755c0 -82 -110 -82 -176 -82s-176 0 -176 82
c0 19 12 31 31 31c24 0 28 -17 30 -29c5 -20 72 -20 115 -20c42 0 110 0 115 20c2 12 6 29 30 29c20 0 31 -12 31 -31z" />
    <glyph glyph-name="ibreve" unicode="&#x12d;" 
d="M406 30c0 -30 -29 -30 -42 -30h-205c-13 0 -42 0 -42 30c0 31 28 31 42 31h68v350h-68c-13 0 -42 0 -42 30c0 31 28 31 42 31h205c14 0 42 0 42 -31c0 -30 -29 -30 -42 -30h-68v-350h68c14 0 42 0 42 -31zM439 627c0 -82 -110 -82 -176 -82s-176 0 -176 82
c0 19 12 31 31 31c24 0 28 -17 30 -29c5 -20 72 -20 115 -20c42 0 110 0 115 20c2 12 6 29 30 29c20 0 31 -12 31 -31z" />
    <glyph glyph-name="Icaron" unicode="&#x1cf;" 
d="M446 30c0 -30 -26 -30 -41 -30h-285c-15 0 -41 0 -41 31c0 30 26 30 41 30h108v489h-108c-15 0 -41 0 -41 31c0 30 26 30 41 30h285c15 0 41 0 41 -31c0 -30 -26 -30 -41 -30h-108v-489h108c15 0 41 0 41 -31zM390 708l-118 -43c-6 -2 -13 -2 -19 0l-118 43
c-35 13 -17 67 19 56l109 -33l109 33c36 11 54 -43 18 -56z" />
    <glyph glyph-name="icaron" unicode="&#x1d0;" 
d="M406 30c0 -30 -29 -30 -42 -30h-205c-13 0 -42 0 -42 30c0 31 28 31 42 31h68v350h-68c-13 0 -42 0 -42 30c0 31 28 31 42 31h205c14 0 42 0 42 -31c0 -30 -29 -30 -42 -30h-68v-350h68c14 0 42 0 42 -31zM397 613l-118 -75c-9 -6 -21 -6 -30 0l-120 76
c-34 21 -2 69 31 49l103 -62l103 62c33 20 64 -29 31 -50z" />
    <glyph glyph-name="Icircumflex" unicode="&#xce;" 
d="M446 30c0 -30 -26 -30 -41 -30h-285c-15 0 -41 0 -41 31c0 30 26 30 41 30h108v489h-108c-15 0 -41 0 -41 31c0 30 26 30 41 30h285c15 0 41 0 41 -31c0 -30 -26 -30 -41 -30h-108v-489h108c15 0 41 0 41 -31zM391 721c35 -13 17 -67 -19 -56l-109 33l-109 -33
c-36 -11 -54 43 -18 56l118 43c6 2 13 2 19 0z" />
    <glyph glyph-name="icircumflex" unicode="&#xee;" 
d="M406 30c0 -30 -29 -30 -42 -30h-205c-13 0 -42 0 -42 30c0 31 28 31 42 31h68v350h-68c-13 0 -42 0 -42 30c0 31 28 31 42 31h205c14 0 42 0 42 -31c0 -30 -29 -30 -42 -30h-68v-350h68c14 0 42 0 42 -31zM397 588c34 -21 2 -69 -31 -49l-103 62l-103 -62
c-33 -20 -64 29 -31 50l118 75c9 6 21 6 30 0z" />
    <glyph glyph-name="Idblgrave" unicode="&#x208;" 
d="M446 30c0 -30 -26 -30 -41 -30h-285c-15 0 -41 0 -41 31c0 30 26 30 41 30h108v489h-108c-15 0 -41 0 -41 31c0 30 26 30 41 30h285c15 0 41 0 41 -31c0 -30 -26 -30 -41 -30h-108v-489h108c15 0 41 0 41 -31zM424 685c-13 -15 -35 -16 -50 -3l-77 70
c-14 13 -16 35 -3 49c13 15 35 16 50 3l77 -70c14 -13 16 -35 3 -49zM230 685c-13 -15 -35 -16 -50 -3l-77 70c-14 13 -16 35 -3 49c13 15 35 16 50 3l77 -70c14 -13 16 -35 3 -49z" />
    <glyph glyph-name="idblgrave" unicode="&#x209;" 
d="M406 30c0 -30 -29 -30 -42 -30h-205c-13 0 -42 0 -42 30c0 31 28 31 42 31h68v350h-68c-13 0 -42 0 -42 30c0 31 28 31 42 31h205c14 0 42 0 42 -31c0 -30 -29 -30 -42 -30h-68v-350h68c14 0 42 0 42 -31zM424 543c-13 -15 -35 -16 -50 -3l-77 70c-14 13 -16 35 -3 49
c13 15 35 16 50 3l77 -70c14 -13 16 -35 3 -49zM230 543c-13 -15 -35 -16 -50 -3l-77 70c-14 13 -16 35 -3 49c13 15 35 16 50 3l77 -70c14 -13 16 -35 3 -49z" />
    <glyph glyph-name="Idieresis" unicode="&#xcf;" 
d="M446 30c0 -30 -26 -30 -41 -30h-285c-15 0 -41 0 -41 31c0 30 26 30 41 30h108v489h-108c-15 0 -41 0 -41 31c0 30 26 30 41 30h285c15 0 41 0 41 -31c0 -30 -26 -30 -41 -30h-108v-489h108c15 0 41 0 41 -31zM210 708c0 -25 -20 -45 -45 -45c-26 0 -45 20 -45 45
s19 45 45 45c25 0 45 -20 45 -45zM405 708c0 -25 -20 -45 -45 -45c-26 0 -45 20 -45 45s19 45 45 45c25 0 45 -20 45 -45z" />
    <glyph glyph-name="idieresis" unicode="&#xef;" 
d="M406 30c0 -30 -29 -30 -42 -30h-205c-13 0 -42 0 -42 30c0 31 28 31 42 31h68v350h-68c-13 0 -42 0 -42 30c0 31 28 31 42 31h205c14 0 42 0 42 -31c0 -30 -29 -30 -42 -30h-68v-350h68c14 0 42 0 42 -31zM225 601c0 -25 -20 -45 -45 -45c-26 0 -45 20 -45 45
s19 45 45 45c25 0 45 -20 45 -45zM390 601c0 -25 -20 -45 -45 -45c-26 0 -45 20 -45 45s19 45 45 45c25 0 45 -20 45 -45z" />
    <glyph glyph-name="Idieresisacute" unicode="&#x1e2e;" 
d="M446 30c0 -30 -26 -30 -41 -30h-285c-15 0 -41 0 -41 31c0 30 26 30 41 30h108v489h-108c-15 0 -41 0 -41 31c0 30 26 30 41 30h285c15 0 41 0 41 -31c0 -30 -26 -30 -41 -30h-108v-489h108c15 0 41 0 41 -31zM210 708c0 -25 -20 -45 -45 -45c-26 0 -45 20 -45 45
s19 45 45 45c25 0 45 -20 45 -45zM405 708c0 -25 -20 -45 -45 -45c-26 0 -45 20 -45 45s19 45 45 45c25 0 45 -20 45 -45zM369 913c0 -11 -4 -24 -28 -35l-133 -59c-6 -3 -11 -5 -18 -5c-26 0 -33 32 -33 40c0 18 11 23 25 29l133 60c11 5 19 5 19 5c20 0 35 -15 35 -35z
" />
    <glyph glyph-name="idieresisacute" unicode="&#x1e2f;" 
d="M406 30c0 -30 -29 -30 -42 -30h-205c-13 0 -42 0 -42 30c0 31 28 31 42 31h68v350h-68c-13 0 -42 0 -42 30c0 31 28 31 42 31h205c14 0 42 0 42 -31c0 -30 -29 -30 -42 -30h-68v-350h68c14 0 42 0 42 -31zM225 601c0 -25 -20 -45 -45 -45c-26 0 -45 20 -45 45
s19 45 45 45c25 0 45 -20 45 -45zM390 601c0 -25 -20 -45 -45 -45c-26 0 -45 20 -45 45s19 45 45 45c25 0 45 -20 45 -45zM369 813c0 -11 -4 -24 -28 -35l-133 -59c-6 -3 -11 -5 -18 -5c-26 0 -33 32 -33 40c0 18 11 23 25 29l133 60c11 5 19 5 19 5c20 0 35 -15 35 -35z
" />
    <glyph glyph-name="Idotaccent" unicode="&#x130;" 
d="M446 30c0 -30 -26 -30 -41 -30h-285c-15 0 -41 0 -41 31c0 30 26 30 41 30h108v489h-108c-15 0 -41 0 -41 31c0 30 26 30 41 30h285c15 0 41 0 41 -31c0 -30 -26 -30 -41 -30h-108v-489h108c15 0 41 0 41 -31zM313 724c0 -28 -22 -50 -50 -50s-50 22 -50 50s22 50 50 50
s50 -22 50 -50z" />
    <glyph glyph-name="Idotbelow" unicode="&#x1eca;" 
d="M446 30c0 -30 -26 -30 -41 -30h-285c-15 0 -41 0 -41 31c0 30 26 30 41 30h108v489h-108c-15 0 -41 0 -41 31c0 30 26 30 41 30h285c15 0 41 0 41 -31c0 -30 -26 -30 -41 -30h-108v-489h108c15 0 41 0 41 -31zM313 -150c0 -28 -22 -50 -50 -50s-50 22 -50 50s22 50 50 50
s50 -22 50 -50z" />
    <glyph glyph-name="idotbelow" unicode="&#x1ecb;" 
d="M406 30c0 -30 -29 -30 -42 -30h-205c-13 0 -42 0 -42 30c0 31 28 31 42 31h68v350h-68c-13 0 -42 0 -42 30c0 31 28 31 42 31h205c14 0 42 0 42 -31c0 -30 -29 -30 -42 -30h-68v-350h68c14 0 42 0 42 -31zM313 -150c0 -28 -22 -50 -50 -50s-50 22 -50 50s22 50 50 50
s50 -22 50 -50z" />
    <glyph glyph-name="Igrave" unicode="&#xcc;" 
d="M446 30c0 -30 -26 -30 -41 -30h-285c-15 0 -41 0 -41 31c0 30 26 30 41 30h108v489h-108c-15 0 -41 0 -41 31c0 30 26 30 41 30h285c15 0 41 0 41 -31c0 -30 -26 -30 -41 -30h-108v-489h108c15 0 41 0 41 -31zM368 713c0 -8 -7 -40 -33 -40c-7 0 -12 2 -18 5l-133 59
c-24 11 -28 24 -28 35c0 20 15 35 35 35c0 0 8 0 19 -5l133 -60c14 -6 25 -11 25 -29z" />
    <glyph glyph-name="igrave" unicode="&#xec;" 
d="M406 30c0 -30 -29 -30 -42 -30h-205c-13 0 -42 0 -42 30c0 31 28 31 42 31h68v350h-68c-13 0 -42 0 -42 30c0 31 28 31 42 31h205c14 0 42 0 42 -31c0 -30 -29 -30 -42 -30h-68v-350h68c14 0 42 0 42 -31zM368 574c0 -8 -7 -40 -33 -40c-7 0 -12 2 -18 5l-133 59
c-24 11 -28 24 -28 35c0 20 15 35 35 35c0 0 8 0 19 -5l133 -60c14 -6 25 -11 25 -29z" />
    <glyph glyph-name="Ihookabove" unicode="&#x1ec8;" 
d="M446 30c0 -30 -26 -30 -41 -30h-285c-15 0 -41 0 -41 31c0 30 26 30 41 30h108v489h-108c-15 0 -41 0 -41 31c0 30 26 30 41 30h285c15 0 41 0 41 -31c0 -30 -26 -30 -41 -30h-108v-489h108c15 0 41 0 41 -31zM365 801c0 -25 -18 -43 -38 -52c-31 -14 -42 -23 -42 -32
v-14c0 -16 -13 -29 -29 -29s-29 13 -29 29v14c0 45 35 67 77 86l2 1s-2 2 -4 3c-11 6 -25 8 -46 8c-25 0 -36 -9 -36 -13c0 -16 -13 -29 -29 -29c-17 0 -30 13 -30 29c0 50 49 71 95 71c27 0 51 -3 73 -14c21 -11 36 -33 36 -58z" />
    <glyph glyph-name="ihookabove" unicode="&#x1ec9;" 
d="M406 30c0 -30 -29 -30 -42 -30h-205c-13 0 -42 0 -42 30c0 31 28 31 42 31h68v350h-68c-13 0 -42 0 -42 30c0 31 28 31 42 31h205c14 0 42 0 42 -31c0 -30 -29 -30 -42 -30h-68v-350h68c14 0 42 0 42 -31zM365 629c0 -25 -18 -43 -38 -52c-31 -14 -42 -23 -42 -32v-14
c0 -16 -13 -29 -29 -29s-29 13 -29 29v14c0 45 35 67 77 86l2 1s-2 2 -4 3c-11 6 -25 8 -46 8c-25 0 -36 -9 -36 -13c0 -16 -13 -29 -29 -29c-17 0 -30 13 -30 29c0 50 49 71 95 71c27 0 51 -3 73 -14c21 -11 36 -33 36 -58z" />
    <glyph glyph-name="Imacron" unicode="&#x12a;" 
d="M446 30c0 -30 -26 -30 -41 -30h-285c-15 0 -41 0 -41 31c0 30 26 30 41 30h108v489h-108c-15 0 -41 0 -41 31c0 30 26 30 41 30h285c15 0 41 0 41 -31c0 -30 -26 -30 -41 -30h-108v-489h108c15 0 41 0 41 -31zM452 714c0 -31 -24 -31 -40 -31h-297c-17 0 -41 0 -41 32
c0 31 24 31 40 31h298c17 0 40 0 40 -32z" />
    <glyph glyph-name="imacron" unicode="&#x12b;" 
d="M406 30c0 -30 -29 -30 -42 -30h-205c-13 0 -42 0 -42 30c0 31 28 31 42 31h68v350h-68c-13 0 -42 0 -42 30c0 31 28 31 42 31h205c14 0 42 0 42 -31c0 -30 -29 -30 -42 -30h-68v-350h68c14 0 42 0 42 -31zM452 601c0 -31 -24 -31 -40 -31h-297c-17 0 -41 0 -41 32
c0 31 24 31 40 31h298c17 0 40 0 40 -32z" />
    <glyph glyph-name="infinity" unicode="&#x221e;" 
d="M239 276c0 49 -32 93 -78 93c-60 0 -60 -82 -60 -153c0 -72 0 -155 60 -155c64 0 78 81 78 155v22v38zM424 216c0 71 0 154 -60 154c-64 0 -77 -81 -77 -154l-1 -23v-38c0 -49 32 -93 78 -93c60 0 60 82 60 154zM486 216c0 -107 -30 -220 -122 -220c-47 0 -84 29 -105 71
c-20 -42 -51 -70 -98 -70c-92 0 -122 112 -122 219c0 106 30 219 122 219c47 0 84 -29 105 -71c20 42 51 70 98 70c92 0 122 -112 122 -218z" />
    <glyph glyph-name="interrobang" unicode="&#x203d;" 
d="M313 50c0 -28 -22 -50 -50 -50s-50 22 -50 50s22 50 50 50s50 -22 50 -50zM448 493c0 -58 -42 -86 -59 -98c-82 -55 -86 -121 -86 -153v-17c0 -36 -10 -41 -40 -41c-40 0 -40 13 -40 52c0 16 0 39 7 66l-2 112l-4 141c-31 -3 -74 -11 -96 -33c7 -8 9 -19 9 -29
c0 -28 -23 -45 -44 -45s-45 15 -45 47c0 96 111 116 175 121l-1 32c0 53 33 57 41 57c7 0 40 -4 40 -57l-1 -33c139 -14 146 -100 146 -122zM379 493c0 42 -44 56 -79 61l-1 -66l-2 -83c14 14 31 27 51 40c12 8 31 21 31 48z" />
    <glyph glyph-name="Iogonek" unicode="&#x12e;" 
d="M446 30c0 -30 -26 -30 -41 -30h-103c-34 -21 -56 -58 -56 -99c0 -22 24 -35 40 -35c18 0 39 19 49 33c5 6 25 9 33 5c7 -7 11 -25 4 -34c-21 -29 -55 -53 -90 -53c-56 0 -89 47 -89 86c0 38 17 73 45 97h-118c-15 0 -41 0 -41 31c0 30 26 30 41 30h108v489h-108
c-15 0 -41 0 -41 31c0 30 26 30 41 30h285c15 0 41 0 41 -31c0 -30 -26 -30 -41 -30h-108v-489h108c15 0 41 0 41 -31z" />
    <glyph glyph-name="iogonek" unicode="&#x12f;" 
d="M406 30c0 -30 -29 -30 -42 -30h-84c-34 -21 -56 -58 -56 -99c0 -22 24 -35 40 -35c18 0 39 19 49 33c5 6 25 9 33 5c7 -7 11 -25 4 -34c-21 -29 -55 -53 -90 -53c-56 0 -89 47 -89 86c0 38 17 73 44 97h-56c-13 0 -42 0 -42 30c0 31 28 31 42 31h68v350h-68
c-13 0 -42 0 -42 30c0 31 28 31 42 31h205c14 0 42 0 42 -31c0 -30 -29 -30 -42 -30h-68v-350h68c14 0 42 0 42 -31z" />
    <glyph glyph-name="Iota" unicode="&#x399;" 
d="M446 30c0 -30 -26 -30 -41 -30h-285c-15 0 -41 0 -41 31c0 30 26 30 41 30h108v489h-108c-15 0 -41 0 -41 31c0 30 26 30 41 30h285c15 0 41 0 41 -31c0 -30 -26 -30 -41 -30h-108v-489h108c15 0 41 0 41 -31z" />
    <glyph glyph-name="Itilde" unicode="&#x128;" 
d="M446 30c0 -30 -26 -30 -41 -30h-285c-15 0 -41 0 -41 31c0 30 26 30 41 30h108v489h-108c-15 0 -41 0 -41 31c0 30 26 30 41 30h285c15 0 41 0 41 -31c0 -30 -26 -30 -41 -30h-108v-489h108c15 0 41 0 41 -31zM438 751c0 -18 -29 -40 -49 -55c-23 -17 -51 -33 -78 -33
c-34 0 -54 21 -67 34c-13 12 -21 21 -31 21c-14 0 -40 -16 -70 -44c-7 -6 -13 -11 -24 -11c-16 0 -31 16 -31 32c0 18 29 40 49 55c23 17 51 33 78 33c34 0 54 -21 67 -34c13 -12 21 -21 31 -21c14 0 40 16 70 44c7 6 13 11 24 11c16 0 31 -16 31 -32z" />
    <glyph glyph-name="itilde" unicode="&#x129;" 
d="M406 30c0 -30 -29 -30 -42 -30h-205c-13 0 -42 0 -42 30c0 31 28 31 42 31h68v350h-68c-13 0 -42 0 -42 30c0 31 28 31 42 31h205c14 0 42 0 42 -31c0 -30 -29 -30 -42 -30h-68v-350h68c14 0 42 0 42 -31zM438 629c0 -18 -29 -40 -49 -55c-23 -17 -51 -33 -78 -33
c-34 0 -54 21 -67 34c-13 12 -21 21 -31 21c-14 0 -40 -16 -70 -44c-7 -6 -13 -11 -24 -11c-16 0 -31 16 -31 32c0 18 29 40 49 55c23 17 51 33 78 33c34 0 54 -21 67 -34c13 -12 21 -21 31 -21c14 0 40 16 70 44c7 6 13 11 24 11c16 0 31 -16 31 -32z" />
    <glyph glyph-name="jcaron" unicode="&#x1f0;" 
d="M454 442c0 -31 -24 -31 -52 -31v-303c0 -85 -86 -116 -168 -116c-39 0 -154 0 -154 85c0 26 19 43 42 43c21 0 41 -16 41 -42c0 -7 -1 -11 -2 -15c25 -10 66 -10 74 -10c13 0 42 0 68 13c30 15 30 28 30 47v298h-49c-13 0 -42 0 -42 30c0 31 28 31 42 31h128
c14 0 42 0 42 -30zM483 613l-118 -75c-9 -6 -21 -6 -30 0l-120 76c-34 21 -2 69 31 49l103 -62l103 62c33 20 64 -29 31 -50z" />
    <glyph glyph-name="Jcircumflex" unicode="&#x134;" 
d="M478 581c0 -31 -25 -31 -41 -31h-30v-416c0 -91 -81 -145 -170 -145c-100 0 -166 47 -166 110c0 32 22 47 45 47c25 0 44 -20 44 -44c0 -16 -4 -21 -8 -26c29 -26 77 -26 85 -26c19 0 101 5 101 90v410h-82c-15 0 -41 0 -41 31c0 30 26 30 41 30h181c15 0 41 0 41 -30z
M476 721c35 -13 17 -67 -19 -56l-109 33l-109 -33c-36 -11 -54 43 -18 56l118 43c6 2 13 2 19 0z" />
    <glyph glyph-name="jcircumflex" unicode="&#x135;" 
d="M454 442c0 -31 -24 -31 -52 -31v-303c0 -85 -86 -116 -168 -116c-39 0 -154 0 -154 85c0 26 19 43 42 43c21 0 41 -16 41 -42c0 -7 -1 -11 -2 -15c25 -10 66 -10 74 -10c13 0 42 0 68 13c30 15 30 28 30 47v298h-49c-13 0 -42 0 -42 30c0 31 28 31 42 31h128
c14 0 42 0 42 -30zM483 588c34 -21 2 -69 -31 -49l-103 62l-103 -62c-33 -20 -64 29 -31 50l118 75c9 6 21 6 30 0z" />
    <glyph glyph-name="Kappa" unicode="&#x39a;" 
d="M495 30c0 -30 -26 -30 -41 -30h-75c-16 0 -41 0 -41 31c0 30 26 30 40 30l-140 250l-93 -117v-133h22c16 0 41 0 41 -31c0 -30 -26 -30 -41 -30h-100c-16 0 -41 0 -41 31c0 30 26 30 41 30h22v489h-22c-16 0 -41 0 -41 31c0 30 26 30 41 30h100c16 0 41 0 41 -31
c0 -30 -26 -30 -41 -30h-22v-266l211 266c-14 0 -41 0 -41 30c0 31 26 31 41 31h88c14 0 41 0 41 -30c0 -31 -21 -31 -57 -31l-152 -192l160 -285c1 -2 5 -8 7 -12c29 0 52 0 52 -31z" />
    <glyph glyph-name="Kcommaaccent" unicode="&#x136;" 
d="M495 30c0 -30 -26 -30 -41 -30h-75c-16 0 -41 0 -41 31c0 30 26 30 40 30l-140 250l-93 -117v-133h22c16 0 41 0 41 -31c0 -30 -26 -30 -41 -30h-100c-16 0 -41 0 -41 31c0 30 26 30 41 30h22v489h-22c-16 0 -41 0 -41 31c0 30 26 30 41 30h100c16 0 41 0 41 -31
c0 -30 -26 -30 -41 -30h-22v-266l211 266c-14 0 -41 0 -41 30c0 31 26 31 41 31h88c14 0 41 0 41 -30c0 -31 -21 -31 -57 -31l-152 -192l160 -285c1 -2 5 -8 7 -12c29 0 52 0 52 -31zM325 -108c0 -82 -77 -123 -101 -123c-12 0 -24 13 -24 24c0 15 14 19 21 21
c9 3 45 15 56 62c-5 -2 -11 -3 -15 -3c-25 0 -47 19 -47 48c0 24 18 46 48 46c33 0 62 -29 62 -75z" />
    <glyph glyph-name="kcommaaccent" unicode="&#x137;" 
d="M487 30c0 -30 -28 -30 -44 -30h-46c-16 0 -44 0 -44 31c0 19 18 28 18 28l-130 173l-44 -43l-47 -44v-84c20 0 47 0 47 -31c0 -30 -29 -30 -44 -30h-65c-15 0 -44 0 -44 30c0 31 27 31 47 31v350c-20 0 -47 0 -47 31c0 30 29 30 44 30h65c15 0 44 0 44 -30
c0 -31 -27 -31 -47 -31v-185l198 189c-4 2 -14 8 -14 26c0 31 27 31 44 31h57c13 0 42 0 42 -30c0 -31 -26 -31 -48 -31l-144 -139l157 -211c18 0 45 0 45 -31zM325 -108c0 -82 -77 -123 -101 -123c-12 0 -24 13 -24 24c0 15 14 19 21 21c9 3 45 15 56 62
c-5 -2 -11 -3 -15 -3c-25 0 -47 19 -47 48c0 24 18 46 48 46c33 0 62 -29 62 -75z" />
    <glyph glyph-name="Lacute" unicode="&#x139;" 
d="M488 41c0 -32 -7 -41 -40 -41h-376c-15 0 -40 0 -40 30c0 31 24 31 40 31h37v489h-37c-15 0 -40 0 -40 30c0 31 24 31 40 31h162c15 0 41 0 41 -31c0 -30 -27 -30 -41 -30h-56v-489h241v69c0 21 0 41 35 41c34 0 34 -21 34 -41v-89zM250 772c0 -11 -4 -24 -28 -35
l-133 -59c-6 -3 -11 -5 -18 -5c-26 0 -33 32 -33 40c0 18 11 23 25 29l133 60c11 5 19 5 19 5c20 0 35 -15 35 -35z" />
    <glyph glyph-name="lacute" unicode="&#x13a;" 
d="M480 42c0 -34 -9 -42 -42 -42h-341c-14 0 -42 0 -42 30c0 31 23 31 57 31v350c-34 0 -57 0 -57 31c0 30 28 30 42 30h114c13 0 42 0 42 -31c0 -30 -29 -30 -42 -30h-30v-350h230v42c0 19 0 42 35 42c34 0 34 -24 34 -42v-61zM254 634c0 -11 -4 -24 -28 -35l-133 -59
c-6 -3 -11 -5 -18 -5c-26 0 -33 32 -33 40c0 18 11 23 25 29l133 60c11 5 19 5 19 5c20 0 35 -15 35 -35z" />
    <glyph glyph-name="Lambda" unicode="&#x39b;" 
d="M495 30c0 -30 -26 -30 -41 -30h-108c-16 0 -41 0 -41 31c0 30 26 30 41 30h21l-88 391c-7 32 -13 58 -17 86h-1c-4 -35 -18 -96 -29 -146l-75 -331h21c16 0 41 0 41 -31c0 -30 -26 -30 -41 -30h-108c-15 0 -41 0 -41 30c0 31 21 31 57 31l122 528c8 34 29 34 49 34h10
c21 0 41 0 50 -37l121 -525c36 0 57 0 57 -31z" />
    <glyph glyph-name="Lcaron" unicode="&#x13d;" 
d="M488 41c0 -32 -7 -41 -40 -41h-376c-15 0 -40 0 -40 30c0 31 24 31 40 31h37v489h-37c-15 0 -40 0 -40 30c0 31 24 31 40 31h162c15 0 41 0 41 -31c0 -30 -27 -30 -41 -30h-56v-489h241v69c0 21 0 41 35 41c34 0 34 -21 34 -41v-89zM458 536c0 -82 -77 -123 -101 -123
c-12 0 -24 13 -24 24c0 15 14 19 21 21c9 3 45 15 56 62c-5 -2 -11 -3 -15 -3c-25 0 -47 19 -47 48c0 24 18 46 48 46c33 0 62 -29 62 -75z" />
    <glyph glyph-name="lcaron" unicode="&#x13e;" 
d="M480 42c0 -34 -9 -42 -42 -42h-341c-14 0 -42 0 -42 30c0 31 23 31 57 31v350c-34 0 -57 0 -57 31c0 30 28 30 42 30h114c13 0 42 0 42 -31c0 -30 -29 -30 -42 -30h-30v-350h230v42c0 19 0 42 35 42c34 0 34 -24 34 -42v-61zM417 397c0 -82 -77 -123 -101 -123
c-12 0 -24 13 -24 24c0 15 14 19 21 21c9 3 45 15 56 62c-5 -2 -11 -3 -15 -3c-25 0 -47 19 -47 48c0 24 18 46 48 46c33 0 62 -29 62 -75z" />
    <glyph glyph-name="Lcommaaccent" unicode="&#x13b;" 
d="M488 41c0 -32 -7 -41 -40 -41h-376c-15 0 -40 0 -40 30c0 31 24 31 40 31h37v489h-37c-15 0 -40 0 -40 30c0 31 24 31 40 31h162c15 0 41 0 41 -31c0 -30 -27 -30 -41 -30h-56v-489h241v69c0 21 0 41 35 41c34 0 34 -21 34 -41v-89zM325 -108c0 -82 -77 -123 -101 -123
c-12 0 -24 13 -24 24c0 15 14 19 21 21c9 3 45 15 56 62c-5 -2 -11 -3 -15 -3c-25 0 -47 19 -47 48c0 24 18 46 48 46c33 0 62 -29 62 -75z" />
    <glyph glyph-name="lcommaaccent" unicode="&#x13c;" 
d="M480 42c0 -34 -9 -42 -42 -42h-341c-14 0 -42 0 -42 30c0 31 23 31 57 31v350c-34 0 -57 0 -57 31c0 30 28 30 42 30h114c13 0 42 0 42 -31c0 -30 -29 -30 -42 -30h-30v-350h230v42c0 19 0 42 35 42c34 0 34 -24 34 -42v-61zM325 -108c0 -82 -77 -123 -101 -123
c-12 0 -24 13 -24 24c0 15 14 19 21 21c9 3 45 15 56 62c-5 -2 -11 -3 -15 -3c-25 0 -47 19 -47 48c0 24 18 46 48 46c33 0 62 -29 62 -75z" />
    <glyph glyph-name="Ldot" unicode="&#x13f;" 
d="M488 41c0 -32 -7 -41 -40 -41h-376c-15 0 -40 0 -40 30c0 31 24 31 40 31h37v489h-37c-15 0 -40 0 -40 30c0 31 24 31 40 31h162c15 0 41 0 41 -31c0 -30 -27 -30 -41 -30h-56v-489h241v69c0 21 0 41 35 41c34 0 34 -21 34 -41v-89zM456 317c0 -28 -22 -50 -50 -50
s-50 22 -50 50s22 50 50 50s50 -22 50 -50z" />
    <glyph glyph-name="ldot" unicode="&#x140;" 
d="M480 42c0 -34 -9 -42 -42 -42h-341c-14 0 -42 0 -42 30c0 31 23 31 57 31v350c-34 0 -57 0 -57 31c0 30 28 30 42 30h114c13 0 42 0 42 -31c0 -30 -29 -30 -42 -30h-30v-350h230v42c0 19 0 42 35 42c34 0 34 -24 34 -42v-61zM459 317c0 -28 -22 -50 -50 -50
s-50 22 -50 50s22 50 50 50s50 -22 50 -50z" />
    <glyph glyph-name="Ldotbelow" unicode="&#x1e36;" 
d="M488 41c0 -32 -7 -41 -40 -41h-376c-15 0 -40 0 -40 30c0 31 24 31 40 31h37v489h-37c-15 0 -40 0 -40 30c0 31 24 31 40 31h162c15 0 41 0 41 -31c0 -30 -27 -30 -41 -30h-56v-489h241v69c0 21 0 41 35 41c34 0 34 -21 34 -41v-89zM313 -150c0 -28 -22 -50 -50 -50
s-50 22 -50 50s22 50 50 50s50 -22 50 -50z" />
    <glyph glyph-name="ldotbelow" unicode="&#x1e37;" 
d="M480 42c0 -34 -9 -42 -42 -42h-341c-14 0 -42 0 -42 30c0 31 23 31 57 31v350c-34 0 -57 0 -57 31c0 30 28 30 42 30h114c13 0 42 0 42 -31c0 -30 -29 -30 -42 -30h-30v-350h230v42c0 19 0 42 35 42c34 0 34 -24 34 -42v-61zM313 -150c0 -28 -22 -50 -50 -50
s-50 22 -50 50s22 50 50 50s50 -22 50 -50z" />
    <glyph glyph-name="Ldotbelowmacron" unicode="&#x1e38;" 
d="M488 41c0 -32 -7 -41 -40 -41h-376c-15 0 -40 0 -40 30c0 31 24 31 40 31h37v489h-37c-15 0 -40 0 -40 30c0 31 24 31 40 31h162c15 0 41 0 41 -31c0 -30 -27 -30 -41 -30h-56v-489h241v69c0 21 0 41 35 41c34 0 34 -21 34 -41v-89zM313 -150c0 -28 -22 -50 -50 -50
s-50 22 -50 50s22 50 50 50s50 -22 50 -50zM343 714c0 -31 -24 -31 -40 -31h-297c-17 0 -41 0 -41 32c0 31 24 31 40 31h298c17 0 40 0 40 -32z" />
    <glyph glyph-name="ldotbelowmacron" unicode="&#x1e39;" 
d="M480 42c0 -34 -9 -42 -42 -42h-341c-14 0 -42 0 -42 30c0 31 23 31 57 31v350c-34 0 -57 0 -57 31c0 30 28 30 42 30h114c13 0 42 0 42 -31c0 -30 -29 -30 -42 -30h-30v-350h230v42c0 19 0 42 35 42c34 0 34 -24 34 -42v-61zM313 -150c0 -28 -22 -50 -50 -50
s-50 22 -50 50s22 50 50 50s50 -22 50 -50zM344 601c0 -31 -24 -31 -40 -31h-297c-17 0 -41 0 -41 32c0 31 24 31 40 31h298c17 0 40 0 40 -32z" />
    <glyph glyph-name="uni0332" unicode="&#x332;" horiz-adv-x="0" 
d="M-73 -150c0 -31 -24 -31 -40 -31h-297c-17 0 -41 0 -41 32c0 31 24 31 40 31h298c17 0 40 0 40 -32z" />
    <glyph glyph-name="lira" unicode="&#x20a4;" 
d="M507 157c0 -84 -38 -168 -113 -168c-55 0 -95 39 -137 74c-26 -46 -83 -74 -143 -74c-54 0 -96 45 -96 99c0 60 61 98 126 98c18 0 35 -4 51 -11c-3 11 -6 22 -10 33h-102c-19 0 -35 15 -35 35c0 19 16 35 35 35h74l-26 56h-48c-19 0 -35 15 -35 35c0 19 16 35 35 35h23
c-6 22 -10 45 -10 68c0 85 87 139 180 139c92 0 179 -54 179 -139c0 -25 -20 -44 -44 -44s-44 19 -44 44c0 10 4 20 10 28c-17 28 -59 41 -101 41c-55 0 -110 -21 -110 -69c0 -23 4 -46 10 -68h108c19 0 35 -16 35 -35c0 -20 -16 -35 -35 -35h-83l26 -56h57
c19 0 35 -16 35 -35c0 -20 -16 -35 -35 -35h-29c10 -29 16 -57 16 -87c37 -31 74 -62 123 -62c40 0 43 52 43 98c0 20 16 35 35 35c20 0 35 -15 35 -35zM199 103c-17 8 -35 13 -55 13c-27 0 -56 -5 -56 -28c0 -16 11 -29 26 -29c38 0 75 15 85 44z" />
    <glyph glyph-name="logicalnot" unicode="&#xac;" 
d="M486 230c0 -19 -16 -35 -35 -35s-35 16 -35 35v117h-343c-19 0 -35 16 -35 35s16 35 35 35h378c19 0 35 -16 35 -35v-152z" />
    <glyph glyph-name="Lslash" unicode="&#x141;" 
d="M488 41c0 -32 -7 -41 -40 -41h-376c-15 0 -40 0 -40 30c0 31 24 31 40 31h37v204l-35 -27c-14 -11 -32 -6 -40 7h-1c-9 14 -4 32 8 41l68 50v214h-37c-15 0 -40 0 -40 30c0 31 24 31 40 31h162c15 0 41 0 41 -31c0 -30 -27 -30 -41 -30h-56v-172l169 117c13 9 31 5 40 -8
v-1c10 -14 6 -32 -7 -41l-202 -137v-247h241v69c0 21 0 41 35 41c34 0 34 -21 34 -41v-89z" />
    <glyph glyph-name="lslash" unicode="&#x142;" 
d="M480 42c0 -34 -9 -42 -42 -42h-341c-14 0 -42 0 -42 30c0 31 23 31 57 31v94l-35 -27c-14 -11 -32 -6 -40 7h-1c-9 14 -4 32 8 41l68 50v185c-34 0 -57 0 -57 31c0 30 28 30 42 30h114c13 0 42 0 42 -31c0 -30 -29 -30 -42 -30h-30v-143l106 77c13 9 31 5 40 -8v-1
c10 -14 6 -32 -7 -41l-139 -97v-137h230v42c0 19 0 42 35 42c34 0 34 -24 34 -42v-61z" />
    <glyph glyph-name="macron" unicode="&#xaf;" 
d="M452 560c0 -31 -24 -31 -40 -31h-297c-17 0 -41 0 -41 32c0 31 24 31 40 31h298c17 0 40 0 40 -32z" />
    <glyph glyph-name="uni0331" unicode="&#x331;" horiz-adv-x="0" 
d="M-73 -150c0 -31 -24 -31 -40 -31h-297c-17 0 -41 0 -41 32c0 31 24 31 40 31h298c17 0 40 0 40 -32z" />
    <glyph glyph-name="uni0304" unicode="&#x304;" horiz-adv-x="0" 
d="M-73 560c0 -31 -24 -31 -40 -31h-297c-17 0 -41 0 -41 32c0 31 24 31 40 31h298c17 0 40 0 40 -32z" />
    <glyph glyph-name="married" unicode="&#x26ad;" 
d="M615 308c0 -118 -96 -217 -221 -217c-28 0 -56 6 -82 16c-18 6 -40 25 -50 25c-3 0 -6 -2 -9 -4c-41 -21 -77 -37 -123 -37c-123 0 -221 100 -221 216c0 120 95 204 204 215c5 0 11 1 16 1c29 0 60 -7 86 -18c16 -6 36 -24 47 -24c3 0 6 2 9 4c41 21 77 37 123 37
c115 0 213 -87 221 -203v-11zM549 307v6c-6 78 -71 143 -153 143c-28 0 -83 -15 -83 -27c0 -7 6 -13 9 -18c17 -32 27 -67 27 -104c0 -22 -3 -45 -10 -66c-6 -19 -26 -47 -26 -56c0 -18 61 -28 83 -28c81 0 153 64 153 150zM211 187c0 5 -5 10 -7 13c-20 33 -29 69 -29 107
c0 36 9 69 27 105c3 5 9 11 9 17c0 3 -3 5 -5 7l-18 9c-19 8 -39 12 -59 12c-81 0 -152 -65 -154 -146v-3c0 -82 71 -150 151 -150c11 0 85 8 85 29zM280 307c0 26 -8 46 -17 70h-2c-9 -24 -17 -44 -17 -70c0 -25 8 -47 17 -69h2c9 22 17 44 17 69z" />
    <glyph glyph-name="Mdotbelow" unicode="&#x1e42;" 
d="M507 30c0 -30 -25 -30 -40 -30h-82c-15 0 -40 0 -40 30c0 31 21 31 53 31v477h-1c-12 -53 -97 -306 -100 -312c-8 -14 -22 -22 -35 -22c-12 0 -24 7 -30 15c-5 7 -18 45 -26 68c-4 13 -68 205 -79 251h-1v-477c32 0 53 0 53 -31c0 -30 -25 -30 -40 -30h-82
c-15 0 -40 0 -40 30c0 31 21 31 53 31v489c-32 0 -53 0 -53 31c0 30 25 30 40 30h56c14 0 39 0 49 -24c2 -6 90 -265 100 -312h1c6 29 15 58 27 94l67 202c9 26 13 40 54 40h56c15 0 40 0 40 -30c0 -31 -21 -31 -53 -31v-489c32 0 53 0 53 -31zM313 -150
c0 -28 -22 -50 -50 -50s-50 22 -50 50s22 50 50 50s50 -22 50 -50z" />
    <glyph glyph-name="mdotbelow" unicode="&#x1e43;" 
d="M488 31c0 -31 -27 -31 -42 -31h-53c-15 0 -42 0 -42 31c0 30 29 30 39 30v340l-1 1l-83 -208c-4 -9 -15 -37 -45 -37c-29 0 -41 29 -44 37l-83 208l-1 -1v-340c10 0 39 0 39 -30c0 -31 -27 -31 -42 -31h-53c-15 0 -42 0 -42 31c0 30 29 30 39 30v350c-10 0 -39 0 -39 30
c0 31 27 31 42 31h43c24 0 43 -2 57 -36l85 -210l84 210c14 35 33 36 57 36h43c15 0 42 0 42 -31c0 -30 -29 -30 -39 -30v-350c10 0 39 0 39 -30zM313 -150c0 -28 -22 -50 -50 -50s-50 22 -50 50s22 50 50 50s50 -22 50 -50z" />
    <glyph glyph-name="uni2127" unicode="&#x2127;" 
d="M494 545c0 -14 0 -41 -28 -41s-28 26 -28 47h-64c7 -45 21 -79 52 -144c30 -65 60 -130 60 -201c0 -122 -101 -216 -222 -216s-222 94 -222 216c0 69 28 131 57 194c32 67 48 102 55 151h-64c0 -21 0 -47 -28 -47s-28 27 -28 41v26c0 32 7 41 40 41h103c19 0 41 0 41 -35
c0 -65 -32 -138 -53 -186c-31 -72 -54 -126 -54 -185c0 -90 72 -155 153 -155s153 65 153 155c0 58 -24 113 -52 180c-25 56 -55 126 -55 191c0 35 21 35 40 35h103c33 0 41 -8 41 -41v-26z" />
    <glyph glyph-name="minus" unicode="&#x2212;" 
d="M486 306c0 -35 -33 -35 -45 -35h-358c-12 0 -45 0 -45 35s37 35 51 35h346c14 0 51 0 51 -35z" />
    <glyph glyph-name="Mu" unicode="&#x39c;" 
d="M507 30c0 -30 -25 -30 -40 -30h-82c-15 0 -40 0 -40 30c0 31 21 31 53 31v477h-1c-12 -53 -97 -306 -100 -312c-8 -14 -22 -22 -35 -22c-12 0 -24 7 -30 15c-5 7 -18 45 -26 68c-4 13 -68 205 -79 251h-1v-477c32 0 53 0 53 -31c0 -30 -25 -30 -40 -30h-82
c-15 0 -40 0 -40 30c0 31 21 31 53 31v489c-32 0 -53 0 -53 31c0 30 25 30 40 30h56c14 0 39 0 49 -24c2 -6 90 -265 100 -312h1c6 29 15 58 27 94l67 202c9 26 13 40 54 40h56c15 0 40 0 40 -30c0 -31 -21 -31 -53 -31v-489c32 0 53 0 53 -31z" />
    <glyph glyph-name="uni00B5" unicode="&#xb5;" 
d="M513 30c0 -30 -26 -30 -43 -30h-69c-18 0 -42 0 -44 31c-31 -23 -67 -37 -118 -37c-11 0 -44 0 -73 11v-166h42c18 0 43 0 43 -31c0 -30 -26 -30 -43 -30h-154c-18 0 -43 0 -43 31c0 30 26 30 43 30h42v530h-42c-18 0 -43 0 -43 31c0 30 26 30 43 30h69
c36 0 43 -8 43 -43v-266c0 -34 0 -66 79 -66c14 0 48 0 81 26c32 26 32 56 32 77v211h-42c-18 0 -43 0 -43 31c0 30 26 30 43 30h69c36 0 43 -8 43 -43v-326h42c18 0 43 0 43 -31z" />
    <glyph glyph-name="multiply" unicode="&#xd7;" 
d="M421 147c-25 -25 -49 0 -58 8l-101 102l-100 -101c-9 -8 -34 -33 -58 -8c-25 24 0 49 8 58l101 100l-102 101c-8 9 -33 33 -8 58s49 0 58 -8l101 -102l100 101c9 8 34 33 58 8c25 -24 0 -49 -8 -58l-101 -100l102 -101c8 -9 33 -33 8 -58z" />
    <glyph glyph-name="uni266A" unicode="&#x266a;" horiz-adv-x="642" 
d="M602 149c0 -22 -16 -38 -36 -38c-39 0 -33 43 -37 68c-15 75 -68 139 -109 203v-216c0 -11 -1 -23 -1 -34c0 -9 1 -17 1 -26c0 -100 -109 -146 -190 -146c-86 0 -190 51 -190 150c0 97 103 140 190 140c43 0 81 -12 120 -28v317c0 8 -1 16 -1 25c0 21 7 48 35 48
c22 0 36 -16 36 -40c4 -33 11 -59 23 -88c51 -112 159 -202 159 -335z" />
    <glyph glyph-name="Nacute" unicode="&#x143;" 
d="M496 580c0 -30 -25 -30 -40 -30h-25v-509c0 -38 -12 -41 -42 -41c-26 0 -42 1 -55 36l-184 500h-1v-475h25c16 0 40 0 40 -31c0 -30 -25 -30 -40 -30h-106c-16 0 -40 0 -40 31c0 30 25 30 40 30h25v489h-25c-16 0 -40 0 -40 31c0 30 25 30 40 30h68c27 0 42 -3 54 -36
l184 -500h1v475h-25c-15 0 -40 0 -40 30c0 31 24 31 40 31h106c16 0 40 0 40 -31zM369 772c0 -11 -4 -24 -28 -35l-133 -59c-6 -3 -11 -5 -18 -5c-26 0 -33 32 -33 40c0 18 11 23 25 29l133 60c11 5 19 5 19 5c20 0 35 -15 35 -35z" />
    <glyph glyph-name="nacute" unicode="&#x144;" 
d="M475 442c0 -31 -25 -31 -48 -31v-369c0 -39 -14 -42 -44 -42c-20 0 -45 0 -61 35l-166 370h-1v-344c23 0 48 0 48 -31c0 -30 -28 -30 -42 -30h-71c-14 0 -42 0 -42 30c0 31 25 31 48 31v350c-23 0 -48 0 -48 31c0 30 28 30 42 30h51c19 0 44 0 60 -35l166 -370h1v344
c-23 0 -48 0 -48 31c0 30 28 30 42 30h71c14 0 42 0 42 -30zM369 634c0 -11 -4 -24 -28 -35l-133 -59c-6 -3 -11 -5 -18 -5c-26 0 -33 32 -33 40c0 18 11 23 25 29l133 60c11 5 19 5 19 5c20 0 35 -15 35 -35z" />
    <glyph glyph-name="naira" unicode="&#x20a6;" 
d="M496 580c0 -30 -25 -30 -40 -30h-25v-131h24c17 0 31 -14 31 -31s-14 -31 -31 -31h-24v-103h24c17 0 31 -14 31 -31s-14 -31 -31 -31h-24v-151c0 -38 -12 -41 -42 -41c-26 0 -42 1 -55 36l-57 156h-128v-131h25c16 0 40 0 40 -31c0 -30 -25 -30 -40 -30h-106
c-16 0 -40 0 -40 31c0 30 25 30 40 30h25v131h-24c-17 0 -31 14 -31 31s14 31 31 31h24v103h-24c-17 0 -31 14 -31 31s14 31 31 31h24v131h-25c-16 0 -40 0 -40 31c0 30 25 30 40 30h68c27 0 42 -3 54 -36l57 -156h128v131h-25c-15 0 -40 0 -40 30c0 31 24 31 40 31h106
c16 0 40 0 40 -31zM193 419l-43 117h-1v-117h44zM254 254l-38 103h-67v-103h105zM375 254v103h-105l38 -103h67zM375 75v117h-44l43 -117h1z" />
    <glyph glyph-name="uni00A0" unicode="&#xa0;" 
 />
    <glyph glyph-name="Ncaron" unicode="&#x147;" 
d="M496 580c0 -30 -25 -30 -40 -30h-25v-509c0 -38 -12 -41 -42 -41c-26 0 -42 1 -55 36l-184 500h-1v-475h25c16 0 40 0 40 -31c0 -30 -25 -30 -40 -30h-106c-16 0 -40 0 -40 31c0 30 25 30 40 30h25v489h-25c-16 0 -40 0 -40 31c0 30 25 30 40 30h68c27 0 42 -3 54 -36
l184 -500h1v475h-25c-15 0 -40 0 -40 30c0 31 24 31 40 31h106c16 0 40 0 40 -31zM390 708l-118 -43c-6 -2 -13 -2 -19 0l-118 43c-35 13 -17 67 19 56l109 -33l109 33c36 11 54 -43 18 -56z" />
    <glyph glyph-name="ncaron" unicode="&#x148;" 
d="M475 442c0 -31 -25 -31 -48 -31v-369c0 -39 -14 -42 -44 -42c-20 0 -45 0 -61 35l-166 370h-1v-344c23 0 48 0 48 -31c0 -30 -28 -30 -42 -30h-71c-14 0 -42 0 -42 30c0 31 25 31 48 31v350c-23 0 -48 0 -48 31c0 30 28 30 42 30h51c19 0 44 0 60 -35l166 -370h1v344
c-23 0 -48 0 -48 31c0 30 28 30 42 30h71c14 0 42 0 42 -30zM397 614l-118 -75c-9 -6 -21 -6 -30 0l-120 76c-34 21 -2 69 31 49l103 -62l103 62c33 20 64 -29 31 -50z" />
    <glyph glyph-name="Ncommaaccent" unicode="&#x145;" 
d="M496 580c0 -30 -25 -30 -40 -30h-25v-509c0 -38 -12 -41 -42 -41c-26 0 -42 1 -55 36l-184 500h-1v-475h25c16 0 40 0 40 -31c0 -30 -25 -30 -40 -30h-106c-16 0 -40 0 -40 31c0 30 25 30 40 30h25v489h-25c-16 0 -40 0 -40 31c0 30 25 30 40 30h68c27 0 42 -3 54 -36
l184 -500h1v475h-25c-15 0 -40 0 -40 30c0 31 24 31 40 31h106c16 0 40 0 40 -31zM325 -108c0 -82 -77 -123 -101 -123c-12 0 -24 13 -24 24c0 15 14 19 21 21c9 3 45 15 56 62c-5 -2 -11 -3 -15 -3c-25 0 -47 19 -47 48c0 24 18 46 48 46c33 0 62 -29 62 -75z" />
    <glyph glyph-name="ncommaaccent" unicode="&#x146;" 
d="M475 442c0 -31 -25 -31 -48 -31v-369c0 -39 -14 -42 -44 -42c-20 0 -45 0 -61 35l-166 370h-1v-344c23 0 48 0 48 -31c0 -30 -28 -30 -42 -30h-71c-14 0 -42 0 -42 30c0 31 25 31 48 31v350c-23 0 -48 0 -48 31c0 30 28 30 42 30h51c19 0 44 0 60 -35l166 -370h1v344
c-23 0 -48 0 -48 31c0 30 28 30 42 30h71c14 0 42 0 42 -30zM325 -108c0 -82 -77 -123 -101 -123c-12 0 -24 13 -24 24c0 15 14 19 21 21c9 3 45 15 56 62c-5 -2 -11 -3 -15 -3c-25 0 -47 19 -47 48c0 24 18 46 48 46c33 0 62 -29 62 -75z" />
    <glyph glyph-name="Ndotaccent" unicode="&#x1e44;" 
d="M496 580c0 -30 -25 -30 -40 -30h-25v-509c0 -38 -12 -41 -42 -41c-26 0 -42 1 -55 36l-184 500h-1v-475h25c16 0 40 0 40 -31c0 -30 -25 -30 -40 -30h-106c-16 0 -40 0 -40 31c0 30 25 30 40 30h25v489h-25c-16 0 -40 0 -40 31c0 30 25 30 40 30h68c27 0 42 -3 54 -36
l184 -500h1v475h-25c-15 0 -40 0 -40 30c0 31 24 31 40 31h106c16 0 40 0 40 -31zM313 713c0 -28 -22 -50 -50 -50s-50 22 -50 50s22 50 50 50s50 -22 50 -50z" />
    <glyph glyph-name="ndotaccent" unicode="&#x1e45;" 
d="M475 442c0 -31 -25 -31 -48 -31v-369c0 -39 -14 -42 -44 -42c-20 0 -45 0 -61 35l-166 370h-1v-344c23 0 48 0 48 -31c0 -30 -28 -30 -42 -30h-71c-14 0 -42 0 -42 30c0 31 25 31 48 31v350c-23 0 -48 0 -48 31c0 30 28 30 42 30h51c19 0 44 0 60 -35l166 -370h1v344
c-23 0 -48 0 -48 31c0 30 28 30 42 30h71c14 0 42 0 42 -30zM313 602c0 -28 -22 -50 -50 -50s-50 22 -50 50s22 50 50 50s50 -22 50 -50z" />
    <glyph glyph-name="Ndotbelow" unicode="&#x1e46;" 
d="M496 580c0 -30 -25 -30 -40 -30h-25v-509c0 -38 -12 -41 -42 -41c-26 0 -42 1 -55 36l-184 500h-1v-475h25c16 0 40 0 40 -31c0 -30 -25 -30 -40 -30h-106c-16 0 -40 0 -40 31c0 30 25 30 40 30h25v489h-25c-16 0 -40 0 -40 31c0 30 25 30 40 30h68c27 0 42 -3 54 -36
l184 -500h1v475h-25c-15 0 -40 0 -40 30c0 31 24 31 40 31h106c16 0 40 0 40 -31zM313 -150c0 -28 -22 -50 -50 -50s-50 22 -50 50s22 50 50 50s50 -22 50 -50z" />
    <glyph glyph-name="ndotbelow" unicode="&#x1e47;" 
d="M475 442c0 -31 -25 -31 -48 -31v-369c0 -39 -14 -42 -44 -42c-20 0 -45 0 -61 35l-166 370h-1v-344c23 0 48 0 48 -31c0 -30 -28 -30 -42 -30h-71c-14 0 -42 0 -42 30c0 31 25 31 48 31v350c-23 0 -48 0 -48 31c0 30 28 30 42 30h51c19 0 44 0 60 -35l166 -370h1v344
c-23 0 -48 0 -48 31c0 30 28 30 42 30h71c14 0 42 0 42 -30zM313 -150c0 -28 -22 -50 -50 -50s-50 22 -50 50s22 50 50 50s50 -22 50 -50z" />
    <glyph glyph-name="Ntilde" unicode="&#xd1;" 
d="M496 580c0 -30 -25 -30 -40 -30h-25v-509c0 -38 -12 -41 -42 -41c-26 0 -42 1 -55 36l-184 500h-1v-475h25c16 0 40 0 40 -31c0 -30 -25 -30 -40 -30h-106c-16 0 -40 0 -40 31c0 30 25 30 40 30h25v489h-25c-16 0 -40 0 -40 31c0 30 25 30 40 30h68c27 0 42 -3 54 -36
l184 -500h1v475h-25c-15 0 -40 0 -40 30c0 31 24 31 40 31h106c16 0 40 0 40 -31zM438 751c0 -18 -29 -40 -49 -55c-23 -17 -51 -33 -78 -33c-34 0 -54 21 -67 34c-13 12 -21 21 -31 21c-14 0 -40 -16 -70 -44c-7 -6 -13 -11 -24 -11c-16 0 -31 16 -31 32c0 18 29 40 49 55
c23 17 51 33 78 33c34 0 54 -21 67 -34c13 -12 21 -21 31 -21c14 0 40 16 70 44c7 6 13 11 24 11c16 0 31 -16 31 -32z" />
    <glyph glyph-name="ntilde" unicode="&#xf1;" 
d="M475 442c0 -31 -25 -31 -48 -31v-369c0 -39 -14 -42 -44 -42c-20 0 -45 0 -61 35l-166 370h-1v-344c23 0 48 0 48 -31c0 -30 -28 -30 -42 -30h-71c-14 0 -42 0 -42 30c0 31 25 31 48 31v350c-23 0 -48 0 -48 31c0 30 28 30 42 30h51c19 0 44 0 60 -35l166 -370h1v344
c-23 0 -48 0 -48 31c0 30 28 30 42 30h71c14 0 42 0 42 -30zM438 630c0 -18 -29 -40 -49 -55c-23 -17 -51 -33 -78 -33c-34 0 -54 21 -67 34c-13 12 -21 21 -31 21c-14 0 -40 -16 -70 -44c-7 -6 -13 -11 -24 -11c-16 0 -31 16 -31 32c0 18 29 40 49 55c23 17 51 33 78 33
c34 0 54 -21 67 -34c13 -12 21 -21 31 -21c14 0 40 16 70 44c7 6 13 11 24 11c16 0 31 -16 31 -32z" />
    <glyph glyph-name="Nu" unicode="&#x39d;" 
d="M496 580c0 -30 -25 -30 -40 -30h-25v-509c0 -38 -12 -41 -42 -41c-26 0 -42 1 -55 36l-184 500h-1v-475h25c16 0 40 0 40 -31c0 -30 -25 -30 -40 -30h-106c-16 0 -40 0 -40 31c0 30 25 30 40 30h25v489h-25c-16 0 -40 0 -40 31c0 30 25 30 40 30h68c27 0 42 -3 54 -36
l184 -500h1v475h-25c-15 0 -40 0 -40 30c0 31 24 31 40 31h106c16 0 40 0 40 -31z" />
    <glyph glyph-name="numero" unicode="&#x2116;" 
d="M493 373c0 -41 -19 -97 -66 -97c-45 0 -66 54 -66 97c0 29 14 97 68 97c47 0 64 -58 64 -97zM527 195c0 -19 -11 -30 -35 -30h-129c-25 0 -36 11 -36 29s11 32 36 32h126c25 0 38 -8 38 -31zM449 546c0 -7 -6 -44 -47 -44c-25 0 -41 20 -41 43c0 5 1 10 2 15
c-3 1 -7 2 -11 2c-33 0 -43 -73 -43 -114v-401c0 -37 -15 -46 -40 -46c-24 0 -47 13 -49 37l-43 504l-1 -386c0 -67 -26 -161 -99 -161c-45 0 -98 22 -98 73c0 25 20 44 44 44c23 0 45 -16 45 -43c0 -5 -1 -11 -2 -16c3 -1 7 -2 11 -2c39 0 45 84 45 156l-2 344
c-6 0 -20 -1 -20 -1c-18 -1 -34 14 -34 32c0 17 11 30 33 30h63c24 0 42 -2 47 -38l44 -503v350c0 45 0 88 17 130c13 34 40 67 78 67c46 0 101 -23 101 -72zM438 368c0 7 -1 39 -11 39s-10 -23 -11 -39c0 -13 2 -30 11 -30c7 0 11 19 11 30z" />
    <glyph glyph-name="Oacute" unicode="&#xd3;" 
d="M468 305c0 -289 -22 -316 -206 -316c-185 0 -206 27 -206 316c0 290 21 317 206 317s206 -28 206 -317zM399 314c0 61 0 136 -12 183c-15 55 -50 64 -125 64c-82 0 -113 -12 -126 -71c-11 -46 -11 -114 -11 -176c0 -55 0 -142 12 -193c12 -50 37 -71 125 -71
c89 0 115 21 126 77c11 54 11 125 11 187zM369 772c0 -11 -4 -24 -28 -35l-133 -59c-6 -3 -11 -5 -18 -5c-26 0 -33 32 -33 40c0 18 11 23 25 29l133 60c11 5 19 5 19 5c20 0 35 -15 35 -35z" />
    <glyph glyph-name="oacute" unicode="&#xf3;" 
d="M461 236c0 -221 -19 -244 -199 -244c-181 0 -200 23 -200 244c0 222 20 244 200 244s199 -23 199 -244zM392 243c0 160 -12 176 -131 176c-118 0 -130 -17 -130 -176c0 -174 14 -190 131 -190c116 0 130 17 130 190zM369 634c0 -11 -4 -24 -28 -35l-133 -59
c-6 -3 -11 -5 -18 -5c-26 0 -33 32 -33 40c0 18 11 23 25 29l133 60c11 5 19 5 19 5c20 0 35 -15 35 -35z" />
    <glyph glyph-name="Obreve" unicode="&#x14e;" 
d="M468 305c0 -289 -22 -316 -206 -316c-185 0 -206 27 -206 316c0 290 21 317 206 317s206 -28 206 -317zM399 314c0 61 0 136 -12 183c-15 55 -50 64 -125 64c-82 0 -113 -12 -126 -71c-11 -46 -11 -114 -11 -176c0 -55 0 -142 12 -193c12 -50 37 -71 125 -71
c89 0 115 21 126 77c11 54 11 125 11 187zM439 755c0 -82 -110 -82 -176 -82s-176 0 -176 82c0 19 12 31 31 31c24 0 28 -17 30 -29c5 -20 72 -20 115 -20c42 0 110 0 115 20c2 12 6 29 30 29c20 0 31 -12 31 -31z" />
    <glyph glyph-name="obreve" unicode="&#x14f;" 
d="M461 236c0 -221 -19 -244 -199 -244c-181 0 -200 23 -200 244c0 222 20 244 200 244s199 -23 199 -244zM392 243c0 160 -12 176 -131 176c-118 0 -130 -17 -130 -176c0 -174 14 -190 131 -190c116 0 130 17 130 190zM439 628c0 -82 -110 -82 -176 -82s-176 0 -176 82
c0 19 12 31 31 31c24 0 28 -17 30 -29c5 -20 72 -20 115 -20c42 0 110 0 115 20c2 12 6 29 30 29c20 0 31 -12 31 -31z" />
    <glyph glyph-name="Ocaron" unicode="&#x1d1;" 
d="M468 305c0 -289 -22 -316 -206 -316c-185 0 -206 27 -206 316c0 290 21 317 206 317s206 -28 206 -317zM399 314c0 61 0 136 -12 183c-15 55 -50 64 -125 64c-82 0 -113 -12 -126 -71c-11 -46 -11 -114 -11 -176c0 -55 0 -142 12 -193c12 -50 37 -71 125 -71
c89 0 115 21 126 77c11 54 11 125 11 187zM390 708l-118 -43c-6 -2 -13 -2 -19 0l-118 43c-35 13 -17 67 19 56l109 -33l109 33c36 11 54 -43 18 -56z" />
    <glyph glyph-name="ocaron" unicode="&#x1d2;" 
d="M461 236c0 -221 -19 -244 -199 -244c-181 0 -200 23 -200 244c0 222 20 244 200 244s199 -23 199 -244zM392 243c0 160 -12 176 -131 176c-118 0 -130 -17 -130 -176c0 -174 14 -190 131 -190c116 0 130 17 130 190zM397 614l-118 -75c-9 -6 -21 -6 -30 0l-120 76
c-34 21 -2 69 31 49l103 -62l103 62c33 20 64 -29 31 -50z" />
    <glyph glyph-name="Ocircumflex" unicode="&#xd4;" 
d="M468 305c0 -289 -22 -316 -206 -316c-185 0 -206 27 -206 316c0 290 21 317 206 317s206 -28 206 -317zM399 314c0 61 0 136 -12 183c-15 55 -50 64 -125 64c-82 0 -113 -12 -126 -71c-11 -46 -11 -114 -11 -176c0 -55 0 -142 12 -193c12 -50 37 -71 125 -71
c89 0 115 21 126 77c11 54 11 125 11 187zM391 721c35 -13 17 -67 -19 -56l-109 33l-109 -33c-36 -11 -54 43 -18 56l118 43c6 2 13 2 19 0z" />
    <glyph glyph-name="ocircumflex" unicode="&#xf4;" 
d="M461 236c0 -221 -19 -244 -199 -244c-181 0 -200 23 -200 244c0 222 20 244 200 244s199 -23 199 -244zM392 243c0 160 -12 176 -131 176c-118 0 -130 -17 -130 -176c0 -174 14 -190 131 -190c116 0 130 17 130 190zM397 589c34 -21 2 -69 -31 -49l-103 62l-103 -62
c-33 -20 -64 29 -31 50l118 75c9 6 21 6 30 0z" />
    <glyph glyph-name="Ocircumflexacute" unicode="&#x1ed0;" 
d="M468 305c0 -289 -22 -316 -206 -316c-185 0 -206 27 -206 316c0 290 21 317 206 317s206 -28 206 -317zM399 314c0 61 0 136 -12 183c-15 55 -50 64 -125 64c-82 0 -113 -12 -126 -71c-11 -46 -11 -114 -11 -176c0 -55 0 -142 12 -193c12 -50 37 -71 125 -71
c89 0 115 21 126 77c11 54 11 125 11 187zM391 721c35 -13 17 -67 -19 -56l-109 33l-109 -33c-36 -11 -54 43 -18 56l118 43c6 2 13 2 19 0zM369 884c0 -11 -4 -24 -28 -35l-133 -59c-6 -3 -11 -5 -18 -5c-26 0 -33 32 -33 40c0 18 11 23 25 29l133 60c11 5 19 5 19 5
c20 0 35 -15 35 -35z" />
    <glyph glyph-name="ocircumflexacute" unicode="&#x1ed1;" 
d="M461 236c0 -221 -19 -244 -199 -244c-181 0 -200 23 -200 244c0 222 20 244 200 244s199 -23 199 -244zM392 243c0 160 -12 176 -131 176c-118 0 -130 -17 -130 -176c0 -174 14 -190 131 -190c116 0 130 17 130 190zM391 592c35 -13 17 -67 -19 -56l-109 33l-109 -33
c-36 -11 -54 43 -18 56l118 43c6 2 13 2 19 0zM369 755c0 -11 -4 -24 -28 -35l-133 -59c-6 -3 -11 -5 -18 -5c-26 0 -33 32 -33 40c0 18 11 23 25 29l133 60c11 5 19 5 19 5c20 0 35 -15 35 -35z" />
    <glyph glyph-name="Ocircumflexdotbelow" unicode="&#x1ed8;" 
d="M468 305c0 -289 -22 -316 -206 -316c-185 0 -206 27 -206 316c0 290 21 317 206 317s206 -28 206 -317zM399 314c0 61 0 136 -12 183c-15 55 -50 64 -125 64c-82 0 -113 -12 -126 -71c-11 -46 -11 -114 -11 -176c0 -55 0 -142 12 -193c12 -50 37 -71 125 -71
c89 0 115 21 126 77c11 54 11 125 11 187zM391 721c35 -13 17 -67 -19 -56l-109 33l-109 -33c-36 -11 -54 43 -18 56l118 43c6 2 13 2 19 0zM313 -150c0 -28 -22 -50 -50 -50s-50 22 -50 50s22 50 50 50s50 -22 50 -50z" />
    <glyph glyph-name="ocircumflexdotbelow" unicode="&#x1ed9;" 
d="M461 236c0 -221 -19 -244 -199 -244c-181 0 -200 23 -200 244c0 222 20 244 200 244s199 -23 199 -244zM392 243c0 160 -12 176 -131 176c-118 0 -130 -17 -130 -176c0 -174 14 -190 131 -190c116 0 130 17 130 190zM397 589c34 -21 2 -69 -31 -49l-103 62l-103 -62
c-33 -20 -64 29 -31 50l118 75c9 6 21 6 30 0zM313 -150c0 -28 -22 -50 -50 -50s-50 22 -50 50s22 50 50 50s50 -22 50 -50z" />
    <glyph glyph-name="Ocircumflexgrave" unicode="&#x1ed2;" 
d="M468 305c0 -289 -22 -316 -206 -316c-185 0 -206 27 -206 316c0 290 21 317 206 317s206 -28 206 -317zM399 314c0 61 0 136 -12 183c-15 55 -50 64 -125 64c-82 0 -113 -12 -126 -71c-11 -46 -11 -114 -11 -176c0 -55 0 -142 12 -193c12 -50 37 -71 125 -71
c89 0 115 21 126 77c11 54 11 125 11 187zM391 721c35 -13 17 -67 -19 -56l-109 33l-109 -33c-36 -11 -54 43 -18 56l118 43c6 2 13 2 19 0zM369 825c0 18 -11 23 -25 29l-133 60c-11 5 -19 5 -19 5c-20 0 -35 -15 -35 -35c0 -11 4 -24 28 -35l133 -59c6 -3 11 -5 18 -5
c26 0 33 32 33 40z" />
    <glyph glyph-name="ocircumflexgrave" unicode="&#x1ed3;" 
d="M461 236c0 -221 -19 -244 -199 -244c-181 0 -200 23 -200 244c0 222 20 244 200 244s199 -23 199 -244zM392 243c0 160 -12 176 -131 176c-118 0 -130 -17 -130 -176c0 -174 14 -190 131 -190c116 0 130 17 130 190zM391 592c35 -13 17 -67 -19 -56l-109 33l-109 -33
c-36 -11 -54 43 -18 56l118 43c6 2 13 2 19 0zM369 696c0 18 -11 23 -25 29l-133 60c-11 5 -19 5 -19 5c-20 0 -35 -15 -35 -35c0 -11 4 -24 28 -35l133 -59c6 -3 11 -5 18 -5c26 0 33 32 33 40z" />
    <glyph glyph-name="Ocircumflexhookabove" unicode="&#x1ed4;" 
d="M468 305c0 -289 -22 -316 -206 -316c-185 0 -206 27 -206 316c0 290 21 317 206 317s206 -28 206 -317zM399 314c0 61 0 136 -12 183c-15 55 -50 64 -125 64c-82 0 -113 -12 -126 -71c-11 -46 -11 -114 -11 -176c0 -55 0 -142 12 -193c12 -50 37 -71 125 -71
c89 0 115 21 126 77c11 54 11 125 11 187zM391 721c35 -13 17 -67 -19 -56l-109 33l-109 -33c-36 -11 -54 43 -18 56l118 43c6 2 13 2 19 0zM467 892c0 -25 -18 -43 -38 -52c-31 -14 -42 -23 -42 -32v-14c0 -16 -13 -29 -29 -29s-29 13 -29 29v14c0 45 35 67 77 86l2 1
s-2 2 -4 3c-11 6 -25 8 -46 8c-25 0 -36 -9 -36 -13c0 -16 -13 -29 -29 -29c-17 0 -30 13 -30 29c0 50 49 71 95 71c27 0 51 -3 73 -14c21 -11 36 -33 36 -58z" />
    <glyph glyph-name="ocircumflexhookabove" unicode="&#x1ed5;" 
d="M461 236c0 -221 -19 -244 -199 -244c-181 0 -200 23 -200 244c0 222 20 244 200 244s199 -23 199 -244zM392 243c0 160 -12 176 -131 176c-118 0 -130 -17 -130 -176c0 -174 14 -190 131 -190c116 0 130 17 130 190zM391 592c35 -13 17 -67 -19 -56l-109 33l-109 -33
c-36 -11 -54 43 -18 56l118 43c6 2 13 2 19 0zM467 763c0 -25 -18 -43 -38 -52c-31 -14 -42 -23 -42 -32v-14c0 -16 -13 -29 -29 -29s-29 13 -29 29v14c0 45 35 67 77 86l2 1s-2 2 -4 3c-11 6 -25 8 -46 8c-25 0 -36 -9 -36 -13c0 -16 -13 -29 -29 -29c-17 0 -30 13 -30 29
c0 50 49 71 95 71c27 0 51 -3 73 -14c21 -11 36 -33 36 -58z" />
    <glyph glyph-name="Ocircumflextilde" unicode="&#x1ed6;" 
d="M468 305c0 -289 -22 -316 -206 -316c-185 0 -206 27 -206 316c0 290 21 317 206 317s206 -28 206 -317zM399 314c0 61 0 136 -12 183c-15 55 -50 64 -125 64c-82 0 -113 -12 -126 -71c-11 -46 -11 -114 -11 -176c0 -55 0 -142 12 -193c12 -50 37 -71 125 -71
c89 0 115 21 126 77c11 54 11 125 11 187zM391 721c35 -13 17 -67 -19 -56l-109 33l-109 -33c-36 -11 -54 43 -18 56l118 43c6 2 13 2 19 0zM438 893c0 -18 -29 -40 -49 -55c-23 -17 -51 -33 -78 -33c-34 0 -54 21 -67 34c-13 12 -21 21 -31 21c-14 0 -40 -16 -70 -44
c-7 -6 -13 -11 -24 -11c-16 0 -31 16 -31 32c0 18 29 40 49 55c23 17 51 33 78 33c34 0 54 -21 67 -34c13 -12 21 -21 31 -21c14 0 40 16 70 44c7 6 13 11 24 11c16 0 31 -16 31 -32z" />
    <glyph glyph-name="ocircumflextilde" unicode="&#x1ed7;" 
d="M461 236c0 -221 -19 -244 -199 -244c-181 0 -200 23 -200 244c0 222 20 244 200 244s199 -23 199 -244zM392 243c0 160 -12 176 -131 176c-118 0 -130 -17 -130 -176c0 -174 14 -190 131 -190c116 0 130 17 130 190zM391 592c35 -13 17 -67 -19 -56l-109 33l-109 -33
c-36 -11 -54 43 -18 56l118 43c6 2 13 2 19 0zM438 764c0 -18 -29 -40 -49 -55c-23 -17 -51 -33 -78 -33c-34 0 -54 21 -67 34c-13 12 -21 21 -31 21c-14 0 -40 -16 -70 -44c-7 -6 -13 -11 -24 -11c-16 0 -31 16 -31 32c0 18 29 40 49 55c23 17 51 33 78 33
c34 0 54 -21 67 -34c13 -12 21 -21 31 -21c14 0 40 16 70 44c7 6 13 11 24 11c16 0 31 -16 31 -32z" />
    <glyph glyph-name="Odblgrave" unicode="&#x20c;" 
d="M468 305c0 -289 -22 -316 -206 -316c-185 0 -206 27 -206 316c0 290 21 317 206 317s206 -28 206 -317zM399 314c0 61 0 136 -12 183c-15 55 -50 64 -125 64c-82 0 -113 -12 -126 -71c-11 -46 -11 -114 -11 -176c0 -55 0 -142 12 -193c12 -50 37 -71 125 -71
c89 0 115 21 126 77c11 54 11 125 11 187zM424 685c-13 -15 -35 -16 -50 -3l-77 70c-14 13 -16 35 -3 49c13 15 35 16 50 3l77 -70c14 -13 16 -35 3 -49zM230 685c-13 -15 -35 -16 -50 -3l-77 70c-14 13 -16 35 -3 49c13 15 35 16 50 3l77 -70c14 -13 16 -35 3 -49z" />
    <glyph glyph-name="odblgrave" unicode="&#x20d;" 
d="M461 236c0 -221 -19 -244 -199 -244c-181 0 -200 23 -200 244c0 222 20 244 200 244s199 -23 199 -244zM392 243c0 160 -12 176 -131 176c-118 0 -130 -17 -130 -176c0 -174 14 -190 131 -190c116 0 130 17 130 190zM424 544c-13 -15 -35 -16 -50 -3l-77 70
c-14 13 -16 35 -3 49c13 15 35 16 50 3l77 -70c14 -13 16 -35 3 -49zM230 544c-13 -15 -35 -16 -50 -3l-77 70c-14 13 -16 35 -3 49c13 15 35 16 50 3l77 -70c14 -13 16 -35 3 -49z" />
    <glyph glyph-name="Odieresis" unicode="&#xd6;" 
d="M468 305c0 -289 -22 -316 -206 -316c-185 0 -206 27 -206 316c0 290 21 317 206 317s206 -28 206 -317zM399 314c0 61 0 136 -12 183c-15 55 -50 64 -125 64c-82 0 -113 -12 -126 -71c-11 -46 -11 -114 -11 -176c0 -55 0 -142 12 -193c12 -50 37 -71 125 -71
c89 0 115 21 126 77c11 54 11 125 11 187zM210 708c0 -25 -20 -45 -45 -45c-26 0 -45 20 -45 45s19 45 45 45c25 0 45 -20 45 -45zM405 708c0 -25 -20 -45 -45 -45c-26 0 -45 20 -45 45s19 45 45 45c25 0 45 -20 45 -45z" />
    <glyph glyph-name="odieresis" unicode="&#xf6;" 
d="M461 236c0 -221 -19 -244 -199 -244c-181 0 -200 23 -200 244c0 222 20 244 200 244s199 -23 199 -244zM392 243c0 160 -12 176 -131 176c-118 0 -130 -17 -130 -176c0 -174 14 -190 131 -190c116 0 130 17 130 190zM225 602c0 -25 -20 -45 -45 -45c-26 0 -45 20 -45 45
s19 45 45 45c25 0 45 -20 45 -45zM390 602c0 -25 -20 -45 -45 -45c-26 0 -45 20 -45 45s19 45 45 45c25 0 45 -20 45 -45z" />
    <glyph glyph-name="Odotbelow" unicode="&#x1ecc;" 
d="M468 305c0 -289 -22 -316 -206 -316c-185 0 -206 27 -206 316c0 290 21 317 206 317s206 -28 206 -317zM399 314c0 61 0 136 -12 183c-15 55 -50 64 -125 64c-82 0 -113 -12 -126 -71c-11 -46 -11 -114 -11 -176c0 -55 0 -142 12 -193c12 -50 37 -71 125 -71
c89 0 115 21 126 77c11 54 11 125 11 187zM313 -150c0 -28 -22 -50 -50 -50s-50 22 -50 50s22 50 50 50s50 -22 50 -50z" />
    <glyph glyph-name="odotbelow" unicode="&#x1ecd;" 
d="M461 236c0 -221 -19 -244 -199 -244c-181 0 -200 23 -200 244c0 222 20 244 200 244s199 -23 199 -244zM392 243c0 160 -12 176 -131 176c-118 0 -130 -17 -130 -176c0 -174 14 -190 131 -190c116 0 130 17 130 190zM313 -150c0 -28 -22 -50 -50 -50s-50 22 -50 50
s22 50 50 50s50 -22 50 -50z" />
    <glyph glyph-name="OE" unicode="&#x152;" 
d="M502 41c0 -32 -7 -41 -40 -41h-165c-9 0 -23 0 -43 -4c-34 -7 -41 -7 -61 -7c-110 0 -137 31 -150 92c-14 63 -14 144 -14 225c0 126 3 178 15 231c15 65 56 85 149 85c17 0 28 0 57 -6c24 -5 35 -5 47 -5h158c34 0 40 -10 40 -41v-73c0 -14 0 -41 -28 -41s-28 27 -28 41
v53h-121v-203h122c16 0 40 0 40 -31c0 -30 -25 -30 -40 -30h-122v-225h128v69c0 14 0 41 28 41s28 -27 28 -41v-89zM262 172v267c0 107 -17 122 -65 122c-112 0 -112 -54 -112 -247c0 -203 0 -264 114 -264c47 0 63 19 63 122z" />
    <glyph glyph-name="oe" unicode="&#x153;" 
d="M494 42c0 -34 -9 -42 -42 -42h-156c-12 0 -19 0 -44 -4c-32 -4 -38 -4 -60 -4c-142 0 -156 34 -156 244s14 244 156 244c22 0 28 0 60 -4c25 -4 32 -4 44 -4h149c34 0 42 -9 42 -42v-49c0 -12 0 -42 -29 -42c-30 0 -30 29 -30 42v30h-107v-136h110c14 0 42 0 42 -31
c0 -30 -29 -30 -42 -30h-110v-153h114v42c0 13 0 42 30 42c29 0 29 -30 29 -42v-61zM262 236c0 25 0 103 -2 122c-4 52 -15 61 -63 61c-102 0 -102 -39 -102 -176c0 -147 0 -190 103 -190c46 0 58 9 62 56c2 21 2 101 2 127z" />
    <glyph glyph-name="ogonek" unicode="&#x2db;" 
d="M350 -130c-21 -29 -55 -53 -90 -53c-56 0 -89 47 -89 86c0 44 22 84 59 108h73c-47 -16 -79 -60 -79 -110c0 -22 24 -35 40 -35c18 0 39 19 49 33c5 6 25 9 33 5c7 -7 11 -25 4 -34z" />
    <glyph glyph-name="Ograve" unicode="&#xd2;" 
d="M468 305c0 -289 -22 -316 -206 -316c-185 0 -206 27 -206 316c0 290 21 317 206 317s206 -28 206 -317zM399 314c0 61 0 136 -12 183c-15 55 -50 64 -125 64c-82 0 -113 -12 -126 -71c-11 -46 -11 -114 -11 -176c0 -55 0 -142 12 -193c12 -50 37 -71 125 -71
c89 0 115 21 126 77c11 54 11 125 11 187zM368 713c0 -8 -7 -40 -33 -40c-7 0 -12 2 -18 5l-133 59c-24 11 -28 24 -28 35c0 20 15 35 35 35c0 0 8 0 19 -5l133 -60c14 -6 25 -11 25 -29z" />
    <glyph glyph-name="ograve" unicode="&#xf2;" 
d="M461 236c0 -221 -19 -244 -199 -244c-181 0 -200 23 -200 244c0 222 20 244 200 244s199 -23 199 -244zM392 243c0 160 -12 176 -131 176c-118 0 -130 -17 -130 -176c0 -174 14 -190 131 -190c116 0 130 17 130 190zM368 575c0 -8 -7 -40 -33 -40c-7 0 -12 2 -18 5
l-133 59c-24 11 -28 24 -28 35c0 20 15 35 35 35c0 0 8 0 19 -5l133 -60c14 -6 25 -11 25 -29z" />
    <glyph glyph-name="ohm" unicode="&#x2126;" 
d="M492 41c0 -32 -7 -41 -40 -41h-103c-19 0 -41 0 -41 35c0 65 32 138 53 186c31 72 54 126 54 185c0 90 -72 155 -153 155s-153 -65 -153 -155c0 -58 24 -113 52 -180c25 -56 55 -126 55 -191c0 -35 -21 -35 -40 -35h-103c-33 0 -41 8 -41 41v26c0 14 0 41 28 41
s28 -26 28 -47h64c-7 45 -21 79 -52 144c-30 65 -60 130 -60 201c0 122 101 216 222 216s222 -94 222 -216c0 -69 -28 -131 -57 -194c-32 -67 -48 -102 -55 -151h64c0 21 0 47 28 47s28 -27 28 -41v-26z" />
    <glyph glyph-name="Ohookabove" unicode="&#x1ece;" 
d="M468 305c0 -289 -22 -316 -206 -316c-185 0 -206 27 -206 316c0 290 21 317 206 317s206 -28 206 -317zM399 314c0 61 0 136 -12 183c-15 55 -50 64 -125 64c-82 0 -113 -12 -126 -71c-11 -46 -11 -114 -11 -176c0 -55 0 -142 12 -193c12 -50 37 -71 125 -71
c89 0 115 21 126 77c11 54 11 125 11 187zM365 801c0 -25 -18 -43 -38 -52c-31 -14 -42 -23 -42 -32v-14c0 -16 -13 -29 -29 -29s-29 13 -29 29v14c0 45 35 67 77 86l2 1s-2 2 -4 3c-11 6 -25 8 -46 8c-25 0 -36 -9 -36 -13c0 -16 -13 -29 -29 -29c-17 0 -30 13 -30 29
c0 50 49 71 95 71c27 0 51 -3 73 -14c21 -11 36 -33 36 -58z" />
    <glyph glyph-name="ohookabove" unicode="&#x1ecf;" 
d="M461 236c0 -221 -19 -244 -199 -244c-181 0 -200 23 -200 244c0 222 20 244 200 244s199 -23 199 -244zM392 243c0 160 -12 176 -131 176c-118 0 -130 -17 -130 -176c0 -174 14 -190 131 -190c116 0 130 17 130 190zM365 630c0 -25 -18 -43 -38 -52
c-31 -14 -42 -23 -42 -32v-14c0 -16 -13 -29 -29 -29s-29 13 -29 29v14c0 45 35 67 77 86l2 1s-2 2 -4 3c-11 6 -25 8 -46 8c-25 0 -36 -9 -36 -13c0 -16 -13 -29 -29 -29c-17 0 -30 13 -30 29c0 50 49 71 95 71c27 0 51 -3 73 -14c21 -11 36 -33 36 -58z" />
    <glyph glyph-name="Ohorn" unicode="&#x1a0;" 
d="M495 643c0 -39 -18 -77 -50 -95c22 -59 22 -163 22 -243c0 -91 0 -215 -33 -266c-33 -50 -107 -50 -173 -50c-65 0 -140 0 -172 50c-33 51 -33 175 -33 266c0 92 0 216 33 267c32 50 107 50 172 50c51 0 107 0 145 -23c8 1 15 6 21 15c-20 7 -32 26 -32 47
c0 25 20 49 50 50c38 -1 50 -38 50 -68zM397 318c0 70 0 166 -21 204s-70 39 -115 39c-44 0 -93 -1 -114 -39c-22 -38 -22 -134 -22 -204c0 -77 0 -183 22 -225c20 -39 69 -43 114 -43s95 4 115 43c21 42 21 148 21 225z" />
    <glyph glyph-name="ohorn" unicode="&#x1a1;" 
d="M481 501c0 -34 -14 -67 -39 -84c18 -46 18 -121 18 -181c0 -72 0 -167 -31 -205c-32 -39 -107 -39 -168 -39s-135 0 -167 39c-31 38 -31 133 -31 205s0 167 31 206c32 38 106 38 167 38c45 0 97 0 134 -15h5c5 0 11 4 15 12c-16 7 -25 24 -25 41c0 23 17 44 44 46h3
c38 -1 44 -37 44 -63zM391 245c0 51 0 119 -21 147c-20 27 -68 27 -109 27c-40 0 -88 0 -108 -27c-21 -28 -21 -96 -21 -147c0 -55 0 -131 21 -162c20 -30 68 -30 108 -30c41 0 89 0 109 30c21 31 21 107 21 162z" />
    <glyph glyph-name="Ohornacute" unicode="&#x1eda;" 
d="M495 643c0 -39 -18 -77 -50 -95c22 -59 22 -163 22 -243c0 -91 0 -215 -33 -266c-33 -50 -107 -50 -173 -50c-65 0 -140 0 -172 50c-33 51 -33 175 -33 266c0 92 0 216 33 267c32 50 107 50 172 50c51 0 107 0 145 -23c8 1 15 6 21 15c-20 7 -32 26 -32 47
c0 25 20 49 50 50c38 -1 50 -38 50 -68zM397 318c0 70 0 166 -21 204s-70 39 -115 39c-44 0 -93 -1 -114 -39c-22 -38 -22 -134 -22 -204c0 -77 0 -183 22 -225c20 -39 69 -43 114 -43s95 4 115 43c21 42 21 148 21 225zM340 772c0 -11 -4 -24 -28 -35l-133 -59
c-6 -3 -11 -5 -18 -5c-26 0 -33 32 -33 40c0 18 11 23 25 29l133 60c11 5 19 5 19 5c20 0 35 -15 35 -35z" />
    <glyph glyph-name="ohornacute" unicode="&#x1edb;" 
d="M481 501c0 -34 -14 -67 -39 -84c18 -46 18 -121 18 -181c0 -72 0 -167 -31 -205c-32 -39 -107 -39 -168 -39s-135 0 -167 39c-31 38 -31 133 -31 205s0 167 31 206c32 38 106 38 167 38c45 0 97 0 134 -15h5c5 0 11 4 15 12c-16 7 -25 24 -25 41c0 23 17 44 44 46h3
c38 -1 44 -37 44 -63zM391 245c0 51 0 119 -21 147c-20 27 -68 27 -109 27c-40 0 -88 0 -108 -27c-21 -28 -21 -96 -21 -147c0 -55 0 -131 21 -162c20 -30 68 -30 108 -30c41 0 89 0 109 30c21 31 21 107 21 162zM340 592c0 -11 -4 -24 -28 -35l-133 -59
c-6 -3 -11 -5 -18 -5c-26 0 -33 32 -33 40c0 18 11 23 25 29l133 60c11 5 19 5 19 5c20 0 35 -15 35 -35z" />
    <glyph glyph-name="Ohorndotbelow" unicode="&#x1ee2;" 
d="M495 643c0 -39 -18 -77 -50 -95c22 -59 22 -163 22 -243c0 -91 0 -215 -33 -266c-33 -50 -107 -50 -173 -50c-65 0 -140 0 -172 50c-33 51 -33 175 -33 266c0 92 0 216 33 267c32 50 107 50 172 50c51 0 107 0 145 -23c8 1 15 6 21 15c-20 7 -32 26 -32 47
c0 25 20 49 50 50c38 -1 50 -38 50 -68zM397 318c0 70 0 166 -21 204s-70 39 -115 39c-44 0 -93 -1 -114 -39c-22 -38 -22 -134 -22 -204c0 -77 0 -183 22 -225c20 -39 69 -43 114 -43s95 4 115 43c21 42 21 148 21 225zM313 -150c0 -28 -22 -50 -50 -50s-50 22 -50 50
s22 50 50 50s50 -22 50 -50z" />
    <glyph glyph-name="ohorndotbelow" unicode="&#x1ee3;" 
d="M481 501c0 -34 -14 -67 -39 -84c18 -46 18 -121 18 -181c0 -72 0 -167 -31 -205c-32 -39 -107 -39 -168 -39s-135 0 -167 39c-31 38 -31 133 -31 205s0 167 31 206c32 38 106 38 167 38c45 0 97 0 134 -15h5c5 0 11 4 15 12c-16 7 -25 24 -25 41c0 23 17 44 44 46h3
c38 -1 44 -37 44 -63zM391 245c0 51 0 119 -21 147c-20 27 -68 27 -109 27c-40 0 -88 0 -108 -27c-21 -28 -21 -96 -21 -147c0 -55 0 -131 21 -162c20 -30 68 -30 108 -30c41 0 89 0 109 30c21 31 21 107 21 162zM313 -150c0 -28 -22 -50 -50 -50s-50 22 -50 50s22 50 50 50
s50 -22 50 -50z" />
    <glyph glyph-name="Ohorngrave" unicode="&#x1edc;" 
d="M495 643c0 -39 -18 -77 -50 -95c22 -59 22 -163 22 -243c0 -91 0 -215 -33 -266c-33 -50 -107 -50 -173 -50c-65 0 -140 0 -172 50c-33 51 -33 175 -33 266c0 92 0 216 33 267c32 50 107 50 172 50c51 0 107 0 145 -23c8 1 15 6 21 15c-20 7 -32 26 -32 47
c0 25 20 49 50 50c38 -1 50 -38 50 -68zM397 318c0 70 0 166 -21 204s-70 39 -115 39c-44 0 -93 -1 -114 -39c-22 -38 -22 -134 -22 -204c0 -77 0 -183 22 -225c20 -39 69 -43 114 -43s95 4 115 43c21 42 21 148 21 225zM339 713c0 -8 -7 -40 -33 -40c-7 0 -12 2 -18 5
l-133 59c-24 11 -28 24 -28 35c0 20 15 35 35 35c0 0 8 0 19 -5l133 -60c14 -6 25 -11 25 -29z" />
    <glyph glyph-name="ohorngrave" unicode="&#x1edd;" 
d="M481 501c0 -34 -14 -67 -39 -84c18 -46 18 -121 18 -181c0 -72 0 -167 -31 -205c-32 -39 -107 -39 -168 -39s-135 0 -167 39c-31 38 -31 133 -31 205s0 167 31 206c32 38 106 38 167 38c45 0 97 0 134 -15h5c5 0 11 4 15 12c-16 7 -25 24 -25 41c0 23 17 44 44 46h3
c38 -1 44 -37 44 -63zM391 245c0 51 0 119 -21 147c-20 27 -68 27 -109 27c-40 0 -88 0 -108 -27c-21 -28 -21 -96 -21 -147c0 -55 0 -131 21 -162c20 -30 68 -30 108 -30c41 0 89 0 109 30c21 31 21 107 21 162zM339 533c0 -8 -7 -40 -33 -40c-7 0 -12 2 -18 5l-133 59
c-24 11 -28 24 -28 35c0 20 15 35 35 35c0 0 8 0 19 -5l133 -60c14 -6 25 -11 25 -29z" />
    </font>
</defs>
</svg>
